Welcome Guest ( Log In | Register )

> Requiem - Collapse Into Chaos (2021), Death Metal (D)
post Jun 23 2021, 20:21:40
Post #1

Правь статус, ####!111
**************
Group: Металариец
Posts: 27,365
Releases: 19855
From: Г.Харьков
On Forums: 9 years 4 months
Thanks: 399859 time(s)
Unknown


(IMG:https://metalarea.org/images/audiocovers/2021_Jun/acov_tid352487_thumb.jpg)

*Artist: Requiem
*Album: Collapse Into Chaos
*Year: 2021
*Genre: Death Metal
*Country: Switzerland (IMG:https://metalarea.org/forum/style_images/flags/Switzerland.png)
*Format: mp3@CBR320kbps
*Size: 90MB

Tracklist:
1. Fade into Emptiness 03:32
2. Collapse into Chaos 03:09
3. Mind Rape 03:25
4. Down to Zero 02:52
5. All Hail the New God 03:48
6. Only Empty Words Remain 02:00
7. Progress to Collapse 03:20
8. Mankind Never Learns 04:12
9. Ivory Morals 01:37
10. Out of Sight, Out of Mind 03:09
11. New World Dystopia 03:39
12. World Downfall 2020 (Outro) 01:55
******************************
Total playing time: 36:38



Extended info
Philipp Klauser Guitars
Michi Kuster Vocals
Reto Crola Drums
Ralf W. Garcia Bass
Matthias Schiemann Guitars


Technical info
(IMG:https://metalarea.org/images/spectrogram/2021_Jun/7fe909d1347fe108b57d4f56e7bb0edb.png)
Input File: 07. Progress to Collapse.mp3
Channels : 2
Sample Rate : 44100
Precision : 16-bit
Duration : 00:03:20.32 = 8834156 samples = 15024.1 CDDA sectors
File Size : 8.49M
Bit Rate : 339k
Sample Encoding: MPEG audio (layer I, II or III)
Comments :
Title=Progress to Collapse
Artist=Requiem
Album=Collapse into Chaos (320)
Tracknumber=07
Year=2021
Genre=Metal



Register


Go to the top of the page
  Insert nick Quick quote
+Quote Post
 
Start new topic
Replies (1 - 4)
post Jun 24 2021, 09:01:23
Post #2

Маньяк
**********
Group: Металариец
Posts: 1,136
Releases: 1
From: APATIN, SERBIA, АПАТИН, СЕРБИЯ
On Forums: 13 years 10 months
Thanks: 2680 time(s)



Flac

Register


Go to the top of the page
  Insert nick Quick quote
+Quote Post
post Jun 24 2021, 09:46:07
Post #3

MDM-Thrash Metal
**************
Group: Металариец
Posts: 10,587
Releases: 1316
From: Одесса
On Forums: 14 years 1 month
Thanks: 31756 time(s)
Ukraine


https://www.youtube.com/watch?v=53Fzt8P8J6U
https://www.youtube.com/watch?v=Azw-qiHMlhU

Отменная смачная олд скульная дезяра, СУПЕР! (IMG:style_emoticons/default/20.gif)


Thanks:
(1) Hexer,
Go to the top of the page
  Insert nick Quick quote
+Quote Post
post Jun 25 2021, 19:15:47
Post #4

Два Литра
**
Group: Завсегдатай
Posts: 157
Releases: 0
On Forums: 3 months 6 days
Thanks: 126 time(s)
Unknown


Не ветераны, но однозначно заслуженные бойцы швейцарского Дэз Метала выпускают новый альбом, и тут только один тематический комментарий??? Все юзеры в новый Дарктрон комментировать убежали походу (IMG:style_emoticons/default/1488.gif) .
Итак Collapse Into Chaos по первому ознакомлению представляет из себя ожидаемо крутой материал, в котором музыканты демонстрируют умение играть как "в старые добрые времена" но с оглядкой на нынешние реалии и даже тренды, от чего альбом звучит не сколько олдскульно, а скорее ностальгично. Жирный саунд, стандартные, но эффектные риффы, мощный вокал + бронебойная ритм секция. Все компоненты в наличии. Обложка так же выглядит как дань былым дням. Твердая 4/5


Thanks:
(1) Andrew,
Go to the top of the page
  Insert nick Quick quote
+Quote Post
post Jul 21 2021, 06:06:26
Post #5

кручу наждак
**************
Group: Металариец
Posts: 5,123
Releases: 104
From: Самара
On Forums: 11 years 4 months
Thanks: 4113 time(s)
Russian Federation


Неплохо в целом по музыке, даже хорошо, чего уж там. Но вот гроул... Странный какой-то, ущербный. У них точно мужик на вокале?
Go to the top of the page
  Insert nick Quick quote
+Quote Post

Reply to this topicStart new topic
1 User(s) are reading this topic (1 Guests and 0 Anonymous Users)
0 Members:

 



- Lo-Fi Version Support form
Copyrights and abuse reports form
Time is now: 19th September 2021 - 17:59:53