Welcome Guest ( Log In | Register )

> Kvmii - And Then He Disappeared [single] (2021), Depressive Black Metal
post Jun 23 2021, 21:39:52
Post #1

KPN 666
**************
Group: Металариец
Posts: 2,732
Releases: 1318
From: Тегеран
On Forums: 12 years 2 months
Thanks: 18936 time(s)
Iran


(IMG:http://metalarea.org/images/audiocovers/2021_Jun/acov_tid352492_thumb.jpg)

*Artist: Kvmii
*Album: And Then He Disappeared [single]
*Year: 2021
*Genre: Depressive Black Metal
*Country: France (IMG:http://metalarea.org/forum/style_images/flags/France.png)
*Format: mp3@CBR320kbps
*Size: 7MB

Tracklist:
01. and then he disappeared 2:48
******************************
Total playing time: 2:48



Technical info
(IMG:http://metalarea.org/images/spectrogram/2021_Jun/b2d29ec85f2b316ba583366c6235ec38.png)
Input File: 01. and then he disappeared.mp3
Channels : 2
Sample Rate : 44100
Precision : 16-bit
Duration : 00:00:00.17 = 7409 samples = 12.6003 CDDA sectors
File Size : 6.86M
Bit Rate : 327M
Sample Encoding: MPEG audio (layer I, II or III)
Comments :
Title=and then he disappeared
Artist=KVMII
Album=and then he disappeared
Tracknumber=1
Year=2021-02-11
Genre=Rock & Metal
Discnumber=1



Register


Go to the top of the page
  Insert nick Quick quote
+Quote Post
 
Start new topic
Replies (1 - 1)
post Jul 21 2021, 21:36:16
Post #2

antithesis
**************
Group: Металариец
Posts: 3,423
Releases: 35
From: VRN
On Forums: 11 years 3 months
Thanks: 2189 time(s)
Russian Federation


УГ с плохим звуком
Go to the top of the page
  Insert nick Quick quote
+Quote Post

Reply to this topicStart new topic
1 User(s) are reading this topic (1 Guests and 0 Anonymous Users)
0 Members:

 



- Lo-Fi Version Support form
Copyrights and abuse reports form
Time is now: 17th September 2021 - 14:40:54