Welcome Guest ( Log In | Register )

> Kassogtha - End Of Humanity [single] (2020), Black Metal
post Jun 24 2021, 09:57:11
Post #1

KPN 666
**************
Group: Металариец
Posts: 2,732
Releases: 1318
From: Тегеран
On Forums: 12 years 2 months
Thanks: 18936 time(s)
Iran


(IMG:http://metalarea.org/images/audiocovers/2021_Jun/acov_tid352505_thumb.jpg)

*Artist: Kassogtha
*Album: End Of Humanity [single]
*Year: 2020
*Genre: Black Metal
*Country: Germany (IMG:http://metalarea.org/forum/style_images/flags/Germany.png)
*Format: mp3@CBR320kbps
*Size: 5MB

Tracklist:
01. End of Humanity 2:02
******************************
Total playing time: 2:02

Technical info
(IMG:http://metalarea.org/images/spectrogram/2021_Jun/5d8f73f9a2fc2453ed9d374fc63bb941.png)
Input File: 01. End of Humanity.mp3
Channels : 2
Sample Rate : 44100
Precision : 16-bit
Duration : 00:00:00.12 = 5380 samples = 9.14966 CDDA sectors
File Size : 5.02M
Bit Rate : 329M
Sample Encoding: MPEG audio (layer I, II or III)
Comments :
Title=End of Humanity
Artist=Kassogtha
Album=End of Humanity
Tracknumber=1
Year=2020-11-19
Genre=Metal
Discnumber=1



Register


Go to the top of the page
  Insert nick Quick quote
+Quote Post
 
Start new topic
Replies (1 - 1)
post Jul 21 2021, 23:22:09    Сейчас играет: The Black Moriah - Road Agents of the Blast Furnace
Post #2

antithesis
**************
Group: Металариец
Posts: 3,423
Releases: 35
From: VRN
On Forums: 11 years 3 months
Thanks: 2189 time(s)
Russian Federation


порожняк
Go to the top of the page
  Insert nick Quick quote
+Quote Post

Reply to this topicStart new topic
1 User(s) are reading this topic (1 Guests and 0 Anonymous Users)
0 Members:

 



- Lo-Fi Version Support form
Copyrights and abuse reports form
Time is now: 17th September 2021 - 15:12:47