Welcome Guest ( Log In | Register )

> Hail Conjurer - Hail & Fire (2021), Black Metal (D8)
post Jun 24 2021, 21:02:17
Post #1

Правь статус, ####!616
**************
Group: Металариец
Posts: 6,998
Releases: 5442
From: 55°35’N 38°08’E
On Forums: 13 years 2 months
Thanks: 99791 time(s)
Unknown


(IMG:https://metalarea.org/images/audiocovers/2021_Jun/acov_tid352556_thumb.jpg)

*Artist: Hail Conjurer
*Album: Hail & Fire
*Year: 2021
*Genre: Black Metal
*Country: Finland (IMG:https://metalarea.org/forum/style_images/flags/Finland.png)
*Format: mp3@CBR320kbps
*Size: 73MB

Tracklist:
1.Solstice 02:36
2.Stainless 03:41
3.Anima 06:12
4.The Gods of the Earth 03:29
5.A Journey Below 06:43
6.Twilight 02:21
7.The Hammer 06:05
******************************
Total playing time: 31:07




Technical info
(IMG:https://metalarea.org/images/spectrogram/2021_Jun/d77ad63559d47faff72fb2d94d8656c1.png)
Input File: 02 Stainless.mp3
Channels : 2
Sample Rate : 44100
Precision : 16-bit
Duration : 00:03:41.59 = 9771943 samples = 16619 CDDA sectors
File Size : 9.00M
Bit Rate : 325k
Sample Encoding: MPEG audio (layer I, II or III)
Comments :
Title=Stainless
Artist=Hail Conjurer
Album=Hail & Fire
Tracknumber=2
Year=2021
Genre=Black Metal



Register


Go to the top of the page
  Insert nick Quick quote
+Quote Post
 
Start new topic
Replies (1 - 2)
post Jun 27 2021, 20:26:12
Post #2

кручу наждак
**************
Group: Металариец
Posts: 5,134
Releases: 104
From: Самара
On Forums: 11 years 4 months
Thanks: 4122 time(s)
Russian Federation


Как-то совсем уж с примитивизмом переборщили.


Thanks:
(1) ent404,
Go to the top of the page
  Insert nick Quick quote
+Quote Post
post Jul 19 2021, 15:05:25
Post #3

добрый мизантроп
**************
Group: Металариец
Posts: 2,394
Releases: 1
From: Менск
On Forums: 10 years 10 months
Thanks: 1079 time(s)
Madagascar


Fine meditative Raw Black, second relisten goes well
Go to the top of the page
  Insert nick Quick quote
+Quote Post

Reply to this topicStart new topic
2 User(s) are reading this topic (2 Guests and 0 Anonymous Users)
0 Members:

 



- Lo-Fi Version Support form
Copyrights and abuse reports form
Time is now: 25th September 2021 - 23:36:58