Welcome Guest ( Log In | Register )

> Правила / Rules

Тут только для чтения лежат низкобитрейтные (<192kbps) релизы, для которых есть аналоги в высокобитрейтных форумах.

Here goes (and stand in read only mode) low bitrate releases (<192kbps) which were already replaced by high bitrate releases in corresponding forums.

> Irae - Dangerovz Magick Zpells From The Mesziah Of Death [ep] (2021), Black Metal (D)
post Jun 24 2021, 21:31:30
Post #1

Malum dominus omnium
****
Group: Металариец
Posts: 370
Releases: 279
On Forums: 1 year 5 months
Thanks: 5720 time(s)
Vatican City


(IMG:https://metalarea.org/images/audiocovers/2021_Jun/acov_tid352558_thumb.jpg)

*Artist: Irae
*Album: Dangerovz Magick Zpells From The Mesziah Of Death [ep]
*Year: 2021
*Genre: Black Metal
*Country: Portugal (IMG:https://metalarea.org/forum/style_images/flags/Portugal.png)
*Format: mp3@CBR320kbps
*Size: 75MB

Tracklist:
1. Part I 05:19
2. Part II 10:38
3. Part III 05:55
4. Part IV 10:24
******************************
Total playing time: 32:16

Metal Archives
(IMG:https://metalarea.org/images/youtube.png)



Technical info
(IMG:https://metalarea.org/images/spectrogram/2021_Jun/e596db8b21cbf6a13420714bd321c6d7.png)
Input File: Irae - Part I.mp3
Channels : 2
Sample Rate : 48000
Precision : 16-bit
Duration : 00:05:19.21 = 15321984 samples ~ 23940.6 CDDA sectors
File Size : 12.8M
Bit Rate : 320k
Sample Encoding: MPEG audio (layer I, II or III)
Comments :
Title=Part I
Artist=Irae
Album=Dangerovz Magick Zpells From The Mesziah Of Death
Tracknumber=1
Year=2021
Genre=Raw Black Metal



Register


Go to the top of the page
  Insert nick Quick quote
+Quote Post
 
Start new topic
Replies (1 - 5)
post Jun 25 2021, 17:03:27
Post #2

Group: Подсевший
Posts: 45
Releases: 0
On Forums: 3 years 4 months
Thanks: 99 time(s)
Unknown


"Dangerovz Magick Zpells From The Mesziah Of Death"?

..Da fuk????


Thanks:
(1) Chasm,
Go to the top of the page
  Insert nick Quick quote
+Quote Post
post Jun 26 2021, 12:08:42
Post #3

Четыре Литра
****
Group: Металариец
Posts: 397
Releases: 10
On Forums: 14 years 5 months
Thanks: 564 time(s)
French Southern Territories


QUOTE(Occultas @ Jun 26 2021, 13:01:10) *
you tube rip


as every cramloth post (IMG:style_emoticons/default/smile1.gif)


Thanks:
(1) Occultas,
Go to the top of the page
  Insert nick Quick quote
+Quote Post
post Jun 28 2021, 06:33:58
Post #4

The Angel Of Death
**************
Group: Металариец
Posts: 6,147
Releases: 52
From: Луганск, 13 регион, экс-404
On Forums: 15 years 8 months
Thanks: 2171 time(s)
Papua New Guinea


ЦИТАТА(elsunga @ 26th June 2021 - 14:08:42) *
you tube rip

from bandcamp page
Go to the top of the page
  Insert nick Quick quote
+Quote Post
post Jun 28 2021, 12:24:03
Post #5

Самый Тихий Час
**************
Group: Металариец
Posts: 6,479
Releases: 6
On Forums: 11 years 8 months
Thanks: 3039 time(s)
Unknown


ЦИТАТА(witchfinder @ 25th June 2021 - 19:03:27) *
"Dangerovz Magick Zpells From The Mesziah Of Death"?

..Da fuk????

Самоирония?))
Миник понравился.
Go to the top of the page
  Insert nick Quick quote
+Quote Post
post Jun 30 2021, 00:46:51
Post #6

Malum dominus omnium
****
Group: Металариец
Posts: 370
Releases: 279
On Forums: 1 year 5 months
Thanks: 5720 time(s)
Vatican City


QUOTE(elsunga @ Jun 26 2021, 12:08:42) *
as every cramloth post (IMG:style_emoticons/default/smile1.gif)

As far as I know the YT bitrate is low and is cut off at 16kHz which isn't the case here, in fact it is a thing I try to check before uploading to avoid sharing low quality stuff.
Go to the top of the page
  Insert nick Quick quote
+Quote Post

Причина закрытия (Borderline1991 30-06-2021):
Closed TopicStart new topic
2 User(s) are reading this topic (2 Guests and 0 Anonymous Users)
0 Members:

 



- Lo-Fi Version Support form
Copyrights and abuse reports form
Time is now: 26th July 2021 - 06:22:33