Welcome Guest ( Log In | Register )

> Forum rules / Правила раздела

Here go releases which can't go to New releases forums due lack of information, stolen links or incorrect data and just founded in other sites links with minimum info. Reissue of this releases through Add release form with added/corrected data, info and own links highly welcomed.

Сюда уходят релизы, не пропущенные в основные релизные форумы по причинам отсутствия, недостаточности или неверности/некорректности сопровождающей информации, содержащие ссылки, указывающие на файлы, залитые не автором темы, а так же просто найденные где-то ссылки с минимумом информации. Переоформление тем отсюда через форму Добавления релиза с перезаливкой ссылок крайне приветствуется.

> Industrial Holocaust - The Holocaust Continues [ep] (2012), Grindcore/Noisecore
post Jun 26 2021, 12:08:11
Post #1

Сволочь обыкновенная
**************
Group: Металариец
Posts: 2,911
Releases: 177
From: Брест
On Forums: 13 years 7 months
Thanks: 4424 time(s)
Belarus


(IMG:https://metalarea.org/images/audiocovers/2021_Jun/acov_tid352650_thumb.jpg)

*Artist: Industrial Holocaust
*Album: The Holocaust Continues [ep]
*Year: 2012
*Genre: Grindcore/Noisecore
*Country: Brazil (IMG:https://metalarea.org/forum/style_images/flags/Brazil.png)
*Format: mp3@CBR320kbps
*Size: 61MB

Tracklist:
01 - Multinational Terror 1:07
02 - Hate 0:05
03 - Green Profit 0:03
04 - From Slavery To Riot 0:31
05 - Hope 0:04
06 - The Land Of Violence 0;43
07 - Chemical Weapons 0:03
08 - Humanity Downfall 0:33
09 - Human Rights 0:04
10 - Painful Life 0:03
11 - Poorness 0:03
12 - Misery, Hunger, Destruction 0:34
13 - Nuclear Threat 0:34
14 - Obliteration 0:04
15 - Nazis Bastards 0;06
16 - Narcoterrorism 0:11
17 - Black Block 0:03
18 - Slave Religion 0 :18
19 - State Terrorism 0:30
20 - Social Riot 0:14
21 - Fashion Bullshits 0:08
22 - Arab Spring 0:05
23 - Free Tibet 0:05
24 - Noisecore Alive 0:07
25 - Decomposed (Morbideath cover) 0:56
******************************
Total playing time: 6:07

Extended info
Крайне зачетная EP от бразильских шумограйндеров Industrial Holocaust. Записались просто образцово показательно - практически классический (и на удивление музыкальный) Noisecore /Gindcore старой школы, причем скорее перетягивает grindcore. Рекомендую к прослушиванию, мне понравилось.
На самом деле команда весьма известная в узких кругах ограниченный людей, но по непонятной причине в в сети их релизы практически не найти. Всего вышло порядка 30 сплитов с разнокалиберными noisegrinders и всего один полноформат от 1997 - Nuclear Warning,вышедший на кассете.


Technical info
(IMG:https://metalarea.org/images/spectrogram/2021_Jun/1d9681b2188e5cdbc2e8943577dba1f2.png)
Input File: 01 - Multinational Terror.mp3
Channels : 2
Sample Rate : 44100
Precision : 16-bit
Duration : 00:01:07.43 = 2973575 samples = 5057.1 CDDA sectors
File Size : 4.40M
Bit Rate : 522k
Sample Encoding: MPEG audio (layer I, II or III)
Comments :
Title=Multinational Terror
Artist=Industrial Holocaus
Tracknumber=1/25
Year=2012
Genre=noisecore
Discnumber=1/1



Register


Thanks:
Go to the top of the page
  Insert nick Quick quote
+Quote Post
 
Start new topic
Replies (1 - 2)
post Jun 26 2021, 21:29:20
Post #2

Сволочь обыкновенная
**************
Group: Металариец
Posts: 2,911
Releases: 177
From: Брест
On Forums: 13 years 7 months
Thanks: 4424 time(s)
Belarus


Что не так? Почему в файнде?
Go to the top of the page
  Insert nick Quick quote
+Quote Post
post Jul 2 2021, 04:31:01
Post #3

Мегаманьяк
***********
Group: Металариец
Posts: 1,765
Releases: 576
On Forums: 11 years 2 weeks
Thanks: 12321 time(s)
Italy


Wrong
01 - Multinational Terror 1:07
Correct
01.Multinational Terror 01:07



Thanks:
(1) spazm,
Go to the top of the page
  Insert nick Quick quote
+Quote Post

Reply to this topicStart new topic
2 User(s) are reading this topic (2 Guests and 0 Anonymous Users)
0 Members:

 



- Lo-Fi Version Support form
Copyrights and abuse reports form
Time is now: 9th December 2021 - 05:17:10