Welcome Guest ( Log In | Register )

> No Living Witness - Cosmic Simulacra (2021), Melodic Black/Death Metal (D4)
post Jul 1 2021, 11:25:40
Post #1

Маньяк
**********
Group: Металариец
Posts: 1,094
Releases: 934
On Forums: 1 year 3 months
Thanks: 24754 time(s)
United States


(IMG:http://metalarea.org/images/audiocovers/2021_Jul/acov_tid352869_thumb.jpg)

*Artist: No Living Witness
*Album: Cosmic Simulacra
*Year: 2021
*Genre: Melodic Black/Death Metal
*Country: United States (IMG:http://metalarea.org/forum/style_images/flags/United%20States.png)
*Format: mp3@CBR320kbps
*Size: 117MB

Tracklist:
01. Discarded Ember From The Universal Flame
02. Dimensions Of Diviner's Sage
03. Dark Moon
04. Sailing On A Cardboard Sea
05. Words Once Written
06. Individual Sovereignty
07. Terra Nova
******************************
Total playing time: 46:11



Technical info
(IMG:http://metalarea.org/images/spectrogram/2021_Jul/92c97a88db51860afde3a55677669d98.png)
Input File: 02. Dimensions Of Diviner\'s Sage.mp3
Channels : 2
Sample Rate : 44100
Precision : 16-bit
Duration : 00:04:52.80 = 12912436 samples = 21959.9 CDDA sectors
File Size : 11.8M
Bit Rate : 322k
Sample Encoding: MPEG audio (layer I, II or III)
Comments :
Title=Dimensions of Diviner's Sage
Artist=No Living Witness
Album=Cosmic Simulacra
Tracknumber=2
Year=2021-07-02
Genre=Alternative / Indie Rock / Metal
Discnumber=1



Register


Go to the top of the page
  Insert nick Quick quote
+Quote Post
 
Start new topic
Replies (1 - 4)
post Jul 1 2021, 21:15:55
Post #2

MDM-Thrash Metal
**************
Group: Металариец
Posts: 11,328
Releases: 1571
From: Одесса
On Forums: 15 years 1 week
Thanks: 37035 time(s)
Ukraine


https://www.youtube.com/watch?v=mrNdE88SG4E
https://www.youtube.com/watch?v=eM3Bc2TwdcM
Go to the top of the page
  Insert nick Quick quote
+Quote Post
post Jul 1 2021, 21:58:50
Post #3

Common dweller of hell
**************
Group: Металариец
Posts: 4,344
Releases: 12
From: Dnipro
On Forums: 14 years 1 month
Thanks: 1722 time(s)
Ukraine


Тут еще и progressive metal валом.
Go to the top of the page
  Insert nick Quick quote
+Quote Post
post Jul 30 2021, 07:21:35
Post #4

практики шума одухотворяющего
**************
Group: Металариец
Posts: 3,472
Releases: 120
From: хроник дисмембера
On Forums: 4 years 6 months
Thanks: 5439 time(s)
Russian Federation


Мелодичный блэк/дэт, перемежающийся или совокуплённый с техно детом на крепкой кинематографически-саундтрековой базе. С приятными голосами, слегка условными симулякрами клавишных и очень очень много гитар во всех регистрах, без перебора с проговыми дебрями, с глубоким погружением в тонкости прорисовки мелодии, развитием и гармоническими наслоениями голосов в буйстве красок и оттенков настроения от провалов в атмосферные пустоты до отлётов в космо-симфонические дали.

Discarded Ember from the Universal Flame, Individual Sovereignty - запоминаются сразу.
Go to the top of the page
  Insert nick Quick quote
+Quote Post
post Jan 13 2022, 19:18:59
Post #5

практики шума одухотворяющего
**************
Group: Металариец
Posts: 3,472
Releases: 120
From: хроник дисмембера
On Forums: 4 years 6 months
Thanks: 5439 time(s)
Russian Federation


Register
Go to the top of the page
  Insert nick Quick quote
+Quote Post

Reply to this topicStart new topic
1 User(s) are reading this topic (1 Guests and 0 Anonymous Users)
0 Members:

 



- Lo-Fi Version Support form
Copyrights and abuse reports form
Time is now: 17th August 2022 - 10:56:59