Welcome Guest ( Log In | Register )

> Waldgeflüster - Stimmen Im Wind 2020 (2020), Atmospheric Black Metal
post Jul 1 2021, 14:28:03
Post #1

the faceless one
Group Icon
Group: S-moderation team
Posts: 9,465
Releases: 1958
On Forums: 13 years 1 month
Thanks: 119160 time(s)
Russian Federation


(IMG:http://metalarea.org/images/audiocovers/2021_Jul/acov_tid352892_thumb.jpg)

*Artist: Waldgeflüster
*Album: Stimmen Im Wind 2020
*Year: 2020
*Genre: Atmospheric Black Metal
*Country: Germany (IMG:http://metalarea.org/forum/style_images/flags/Germany.png)
*Format: mp3@CBR320kbps
*Size: 104MB

Tracklist:
1. Morgendämmerung 04:29
2. Waldgeflüster 10:16
3. Vintersjäl 05:35
4. Wotan Sang 09:36
5. Wenn Die Bäume 08:31
6. Abenddämmerung 03:17
******************************
Total playing time: 41:44



Extended info
Nordvis Produktion

Демо, перезаписанное с живыми ударными и басом, выпущено в 2020 году как альбом в формате 12" винила.
Оригинал записи здесь.


Technical info
(IMG:http://metalarea.org/images/spectrogram/2021_Jul/22b99fd23672bdfc1e40a7d1f37816f8.png)
Input File: 04. Wotan Sang.mp3
Channels : 2
Sample Rate : 44100
Precision : 16-bit
Duration : 00:09:35.62 = 25384710 samples = 43171.3 CDDA sectors
File Size : 23.0M
Bit Rate : 320k
Sample Encoding: MPEG audio (layer I, II or III)
Comments :
Title=Wotan Sang
Artist=Waldgeflüster
Album=Stimmen Im Wind 2020
Tracknumber=4
Year=2020
Genre=Black Metal



Register


Go to the top of the page
  Insert nick Quick quote
+Quote Post
 
Start new topic
Replies (1 - 1)
post Jul 21 2021, 08:16:39
Post #2

добрый мизантроп
**************
Group: Металариец
Posts: 2,368
Releases: 1
From: Менск
On Forums: 10 years 10 months
Thanks: 1075 time(s)
Madagascar


(IMG:style_emoticons/default/true_black.gif) (IMG:style_emoticons/default/true_black.gif)
Go to the top of the page
  Insert nick Quick quote
+Quote Post

Reply to this topicStart new topic
1 User(s) are reading this topic (1 Guests and 0 Anonymous Users)
0 Members:

 



- Lo-Fi Version Support form
Copyrights and abuse reports form
Time is now: 19th September 2021 - 18:21:10