Welcome Guest ( Log In | Register )

> Year Of No Light - Consolamentum (2021), Sludge/Drone/Doom Metal/Post-Rock/Ambient (D)
post Jul 1 2021, 17:39:51
Post #1

Правь статус, ####!111
**************
Group: Металариец
Posts: 4,283
Releases: 3930
From: Одесса
On Forums: 13 years 3 months
Thanks: 43328 time(s)
Ukraine


(IMG:http://metalarea.org/images/audiocovers/2021_Jul/acov_tid352907_thumb.jpg)

*Artist: Year Of No Light
*Album: Consolamentum
*Year: 2021
*Genre: Sludge/Drone/Doom Metal/Post-Rock/Ambient
*Country: France (IMG:http://metalarea.org/forum/style_images/flags/France.png)
*Format: mp3@CBR320kbps
*Size: 131MB

Tracklist:
1. Objuration 12:46
2. Alétheia 07:39
3. Interdix aux Vivant, aux Morts et aux Chiens 11:10
4. Réalgar 12:45
5. Came 10:55
******************************
Total playing time: 55:15



Extended info
Line - up:

Johan Sébenne - Bass, Electronics (Acid Bonanga, Altaïr Temple, Nexus Sun)
Bertrand Sébenne - Drums, Keyboards (ex-Metronome Charisma)
Jérôme Alban - Guitars, Keyboards (Adam Kesher, Baron Oufo, Donald Washington, ex-Metronome Charisma)
Pierre Anouilh - Guitars (ex-Déjà Mort)
Mathieu Mégemont - Drums, Electronics (ex-Absurd, Fléau, VvvV, ex-Aérôflôt)
Shiran Kaïdine - Guitars, Vocals (ex-Monarch, ex-Gasmask Terror, ex-GxBxJRx, ex-Los Cojonudos, ex-Miércoles, ex-Rainbow of Death, ex-Tetsuo)


Technical info
(IMG:http://metalarea.org/images/spectrogram/2021_Jul/9e712bbda9c621809198280c2154a715.png)
Input File: 01 - Objuration.mp3
Channels : 2
Sample Rate : 44100
Precision : 16-bit
Duration : 00:12:47.50 = 33846618 samples = 57562.3 CDDA sectors
File Size : 30.7M
Bit Rate : 320k
Sample Encoding: MPEG audio (layer I, II or III)
Comments :
Title=Objuration
Artist=Year of No Light
Album=Consolamentum
Tracknumber=01/5
Year=2021
Genre=Sludge | Drone | Doom Metal, Post-Rock| Ambient



Register


Go to the top of the page
  Insert nick Quick quote
+Quote Post
 
Start new topic
Replies (1 - 6)
post Jul 2 2021, 08:43:16
Post #2

Восемь Литров
********
Group: Металариец
Posts: 858
Releases: 0
On Forums: 13 years 11 months
Thanks: 385 time(s)
Poland


Ждал выхода. Материал замечательный. Правда дрон и эмбиент я бы убрал из жанра.
Go to the top of the page
  Insert nick Quick quote
+Quote Post
post Jul 2 2021, 09:02:14
Post #3
BAN
Banned till
Oct 22 2021, 16:25:29



насчет музла не в курсе, да и нет желания, а вот облога прямо иллюстрация "писька смотрит на трусы"


Thanks:
(1) Maximvs,
Go to the top of the page
  Insert nick Quick quote
+Quote Post
post Jul 2 2021, 09:06:01
Post #4

Восемь Литров
********
Group: Металариец
Posts: 858
Releases: 0
On Forums: 13 years 11 months
Thanks: 385 time(s)
Poland




Thanks:
Go to the top of the page
  Insert nick Quick quote
+Quote Post
post Aug 26 2021, 12:47:43
Post #5

####!111
**************
Group: Металариец
Posts: 4,472
Releases: 134
From: The Mountain Of DOOM
On Forums: 13 years 11 months
Thanks: 6283 time(s)
Russian Federation


Эксперименты видать кончились.
Музыкально возврат к Ausserwelt.
Пока прокатывает.
Go to the top of the page
  Insert nick Quick quote
+Quote Post
post Sep 22 2021, 11:01:19
Post #6

Два Литра
**
Group: Завсегдатай
Posts: 141
Releases: 0
From: Новая Каледония
On Forums: 2 years 2 months
Thanks: 14 time(s)
Russian Federation


Запилите на яндекс или майл пожалуйста
Go to the top of the page
  Insert nick Quick quote
+Quote Post
post Sep 22 2021, 11:08:24
Post #7

королева бала
*******
Group: Металариец
Posts: 753
Releases: 0
On Forums: 14 years 5 months
Thanks: 550 time(s)
Russian Federation


QUOTE(Exhorder121121 @ Sep 22 2021, 13:01:19) *
Запилите на яндекс или майл пожалуйста

нафиг? с бендкемпа скачай в любом формате, там бесплатно.


альбом очень крут, бтв
Go to the top of the page
  Insert nick Quick quote
+Quote Post

Reply to this topicStart new topic
2 User(s) are reading this topic (2 Guests and 0 Anonymous Users)
0 Members:

 



- Lo-Fi Version Support form
Copyrights and abuse reports form
Time is now: 25th September 2021 - 00:45:44