Welcome Guest ( Log In | Register )

> Expunged - Into Never Shall (2021), Old School Death Metal
post Jul 1 2021, 18:43:23
Post #1

Правь статус, ####!111
**************
Group: Металариец
Posts: 30,377
Releases: 22365
From: Г.Харьков
On Forums: 10 years 4 months
Thanks: 467168 time(s)
Unknown


(IMG:https://metalarea.org/images/audiocovers/2021_Jul/acov_tid352915_thumb.jpg)

*Artist: Expunged
*Album: Into Never Shall
*Year: 2021
*Genre: Old School Death Metal
*Country: Canada (IMG:https://metalarea.org/forum/style_images/flags/Canada.png)
*Format: mp3@CBR320kbps
*Size: 89MB

Tracklist:
1. Decompose 02:38
2. Gas Attack 03:26
3. Torn Apart 03:32
4. Drown in Fire 04:55
5. Early Tragic End 04:53
6. Architects of Oblivion 03:31
7. Amidst the Embers 03:15
8. Mass Grave 03:09
9. Into Never Shall 03:48
10. Stolen Life 04:22
******************************
Total playing time: 37:29




Extended info
CD-Rip
K.F. Drums
See also: Töteblut
J.S. Bass, Vocals (2019-present)
See also: Aphrodite, Cannibal, Dexezon, Ice War, Spectral Dance, ex-Trioxin 245, ex-Tempête, ex-Iron Dogs, Blue Cross, Defonce, Devastate, La Loix, Metachrist, Zex, Вредители, ex-Barrow Wight (live), ex-Cauchemar (live), ex-Bastardator, ex-Germ Attak, ex-Mental Rescue
W.D. Guitars (2019-present)
See also: DeadSoulAlliance, ex-Evolution Fail, ex-Recondite
A.K. Drums (2021-present)


Technical info
(IMG:https://metalarea.org/images/spectrogram/2021_Jul/934e697c2c55a99968e6790cebad82dd.png)
Input File: 05. Early Tragic End.mp3
Channels : 2
Sample Rate : 44100
Precision : 16-bit
Duration : 00:04:53.00 = 12921300 samples = 21975 CDDA sectors
File Size : 12.1M
Bit Rate : 330k
Sample Encoding: MPEG audio (layer I, II or III)
Comments :
Title=Early Tragic End
Artist=Expunged
Album=Into Never Shall (320)
Tracknumber=05
Year=2021
Genre=Metal



Register


Go to the top of the page
  Insert nick Quick quote
+Quote Post
 
Start new topic
Replies (1 - 2)
post Jul 2 2021, 12:34:38
Post #2

Правь статус, ####!111
**************
Group: Металариец
Posts: 30,377
Releases: 22365
From: Г.Харьков
On Forums: 10 years 4 months
Thanks: 467168 time(s)
Unknown


FLAC (Tracks) 255 mb
Register


Thanks:
Go to the top of the page
  Insert nick Quick quote
+Quote Post
post Jul 21 2021, 16:06:42
Post #3

Austenite
**************
Group: Металариец
Posts: 3,170
Releases: 1
From: Менск
On Forums: 11 years 10 months
Thanks: 1404 time(s)
Madagascar


Exciting drumms but slow and boring guitar riffs
Go to the top of the page
  Insert nick Quick quote
+Quote Post

Reply to this topicStart new topic
1 User(s) are reading this topic (1 Guests and 0 Anonymous Users)
0 Members:

 



- Lo-Fi Version Support form
Copyrights and abuse reports form
Time is now: 3rd October 2022 - 08:19:08