Welcome Guest ( Log In | Register )

> Kvasir's Blood - Phantoms Of The Deepest Night [ep] (2020), Black Metal (D5)
post Jul 3 2021, 00:33:18
Post #1

Group: Подсевший
Posts: 37
Releases: 12
On Forums: 1 year 2 months
Thanks: 249 time(s)
Unknown


(IMG:https://metalarea.org/images/audiocovers/2021_Jul/acov_tid352979_thumb.jpg)

*Artist: Kvasir's Blood
*Album: Phantoms Of The Deepest Night [ep]
*Year: 2020
*Genre: Black Metal
*Country: United States (IMG:https://metalarea.org/forum/style_images/flags/United%20States.png)
*Format: mp3@CBR320kbps
*Size: 38MB

Tracklist:
1. Last Journey Through the Cosmic Realms 08:00
2. Melancholic Deathwinds Enshroud the Land 08:34
******************************
Total playing time: 16:34

(IMG:https://metalarea.org/images/youtube.png)

Technical info
(IMG:https://metalarea.org/images/spectrogram/2021_Jul/4f3940211cadf1d7f0e46516c4727bfb.png)
Input File: 01 Kvasir\'s Blood - Lost Journey Through the Cosmic Realms.mp3
Channels : 2
Sample Rate : 44100
Precision : 16-bit
Duration : 00:08:00.08 = 21171616 samples = 36006.1 CDDA sectors
File Size : 19.3M
Bit Rate : 321k
Sample Encoding: MPEG audio (layer I, II or III)
Comments :
Title=Lost Journey Through the Cosmic Realms
Artist=Kvasir's Blood
Album=Phantoms of the Deepest Night [EP]
Tracknumber=1/2
Year=2020
Genre=Black Metal
Discnumber=1/1



Register


Go to the top of the page
  Insert nick Quick quote
+Quote Post
 
Start new topic
Replies (1 - 2)
post Jul 4 2021, 17:58:38
Post #2

Два Литра
**
Group: Завсегдатай
Posts: 166
Releases: 0
On Forums: 3 months 1 week
Thanks: 132 time(s)
Unknown


Тот случай когда название очень точно передаёт содержание. Музыка на "Призраках глубокой ночи" звучит обволакивающе-мрачно, умеренно-мелодично и очень атмосферно. Шестнадцать с половиной минут среднетемпового Блэк Метала без особых прикрас, но такого ностальгичного, что хочется возвращаться к этой EP неоднократно. Очень достойная работа


Go to the top of the page
  Insert nick Quick quote
+Quote Post
post Jul 4 2021, 18:23:42
Post #3

**************
Group: Металариец
Posts: 2,739
Releases: 14
From: Казань
On Forums: 12 years 1 week
Thanks: 3824 time(s)
Russian Federation


Я бы не сказал, что без особых прикрас, научиться находить мелодию в лоу фай омутах - это целое Искусство. Искусство Слушателя.
В целом , аура располагает, чтобы абстрагироваться от тщедушной музыкальной полемики, а просто лечь и провалиться в омут священных частот и замурованных ритмов.
Где то слышится Ксастур, но от него взято совсем немного, разве что эпопея грязно-болотного экскурса Вночь


Go to the top of the page
  Insert nick Quick quote
+Quote Post

Reply to this topicStart new topic
2 User(s) are reading this topic (2 Guests and 0 Anonymous Users)
0 Members:

 



- Lo-Fi Version Support form
Copyrights and abuse reports form
Time is now: 25th September 2021 - 22:50:41