Welcome Guest ( Log In | Register )

> Forum rules / Правила раздела

Here go releases which can't go to New releases forums due lack of information, stolen links or incorrect data and just founded in other sites links with minimum info. Reissue of this releases through Add release form with added/corrected data, info and own links highly welcomed.

Сюда уходят релизы, не пропущенные в основные релизные форумы по причинам отсутствия, недостаточности или неверности/некорректности сопровождающей информации, содержащие ссылки, указывающие на файлы, залитые не автором темы, а так же просто найденные где-то ссылки с минимумом информации. Переоформление тем отсюда через форму Добавления релиза с перезаливкой ссылок крайне приветствуется.

 
Reply to this topicStart new topic
> Wolfenburg & Zmierzch - Wolfenburg/Zmierzch [split] (2010), Black Metal | Black Metal (D4)(D4)
post Jul 3 2021, 19:06:21
Post #1

Group: Подсевший
Posts: 37
Releases: 12
On Forums: 1 year 3 months
Thanks: 259 time(s)
Unknown


(IMG:https://metalarea.org/images/audiocovers/2021_Jul/acov_tid353027_thumb.jpg)

*Artist: Wolfenburg & Zmierzch
*Album: Wolfenburg/Zmierzch [split]
*Year: 2010
*Genre: Black Metal | Black Metal
*Country: Poland (IMG:https://metalarea.org/forum/style_images/flags/Poland.png) | Poland (IMG:https://metalarea.org/forum/style_images/flags/Poland.png)
*Format: mp3@CBR320kbps
*Size: 69MB

Tracklist:
1. Wolfenburg - Intro 02:29
2. Wolfenburg - The Empire of the Wolf 10:27
3. Zmierzch - Kruk I 04:11
4. Zmierzch - Kruk II 04:17
5. Zmierzch - Lene 08:46
******************************
Total playing time: 30:10

Technical info
(IMG:https://metalarea.org/images/spectrogram/2021_Jul/a00dba8bd926b17fa23b08e561d80991.png)
Input File: 03 Zmierzch - Kruk I.mp3
Channels : 2
Sample Rate : 44100
Precision : 16-bit
Duration : 00:04:12.17 = 11120829 samples = 18913 CDDA sectors
File Size : 10.2M
Bit Rate : 323k
Sample Encoding: MPEG audio (layer I, II or III)
Comments :
Title=Kruk I
Artist=Zmierzch
Album=Split
Tracknumber=3/5
Year=2010
Genre=Metal
Discnumber=1/1



Register


Thanks:
Go to the top of the page
  Insert nick Quick quote
+Quote Post

Reply to this topicStart new topic
1 User(s) are reading this topic (1 Guests and 0 Anonymous Users)
0 Members:

 



- Lo-Fi Version Support form
Copyrights and abuse reports form
Time is now: 25th October 2021 - 20:00:24