Welcome Guest ( Log In | Register )

> Amenra - De Doorn (2021), Sludge/Post-Metal (D)
post Jul 4 2021, 15:04:13
Post #1

Четыре Литра
****
Group: Металариец
Posts: 360
Releases: 34
From: Місто Київ
On Forums: 12 years 5 months
Thanks: 670 time(s)
Ukraine


(IMG:http://metalarea.org/images/audiocovers/2021_Jul/acov_tid353045_thumb.jpg)

*Artist: Amenra
*Album: De Doorn
*Year: 2021
*Genre: Sludge/Post-Metal
*Country: Belgium (IMG:http://metalarea.org/forum/style_images/flags/Belgium.png)
*Format: mp3@CBR320kbps
*Size: 106MB

Tracklist:
1.Ogentroost 10:01
2.De dood in bloei 04:38
3.De evenmens 08:01
4.Het gloren 11:30
5.Voor immer 12:42
******************************
Total playing time: 46:52



Technical info
(IMG:http://metalarea.org/images/spectrogram/2021_Jul/5657c157ac580fa7a0ee83ef3d769137.png)
Input File: 02. De Dood In Bloei.mp3
Channels : 2
Sample Rate : 44100
Precision : 16-bit
Duration : 00:04:38.72 = 12291508 samples = 20903.9 CDDA sectors
File Size : 11.2M
Bit Rate : 321k
Sample Encoding: MPEG audio (layer I, II or III)
Comments :
Title=De Dood In Bloei
Artist=Amenra
Album=De Doorn
Tracknumber=02
Year=2021
Genre=Metal



Register

Register


Go to the top of the page
  Insert nick Quick quote
+Quote Post
 
Start new topic
Replies (1 - 5)
post Jul 6 2021, 12:27:58
Post #2

Leegte
***********
Group: Металариец
Posts: 1,690
Releases: 15
From: Kiovia
On Forums: 9 years 5 months
Thanks: 2473 time(s)
Ukraine


Очень хорошо. Тягучая и густая атмосфера, истеричный вокал, депрессивная мелодика - как всегда.
Даже если за окном лето-солнце-радость-жара, AmenRa создают угрюмую промозглую позднюю осень.
Go to the top of the page
  Insert nick Quick quote
+Quote Post
post Jul 6 2021, 12:37:29
Post #3

Правь статус, ####!111
**************
Group: Металариец
Posts: 49,203
Releases: 868
On Forums: 12 years 3 months
Thanks: 44647 time(s)
Russian Federation


Когда то дико пёрли они в первую очередь за счёт этого харизматичного вокала, но впоследствии надоели. Ибо кроме надрывного (в хорошем смысле) горлодёрства и всепоглощающей депрессии больше и нет ни шиша. А от музыки в таком стиле хочется большего спектра эмоций и какой-никакой, но разноплановости.

Так и остались на олимпе, вершине Neurosis и Cult Of Luna - эталоны стиля пост-метал, безумно талантливейшие, наиболее музыкальные, изысканные, разноплановые, короче - самые-самые.
Go to the top of the page
  Insert nick Quick quote
+Quote Post
post Jul 6 2021, 16:05:58
Post #4

Литр
*
Group: Подсевший
Posts: 71
Releases: 0
On Forums: 1 year 4 months
Thanks: 32 time(s)
Russian Federation


Для дебюта на Relapse бельгийцы презентовали 46+ минут гнетущего сладжа вперемешку с обскурным эмбиентом: вязкие заdoomчивые риффы, плотные облака тревожных саундскейпов, надрывные вопли, бесстрастные речитативы... здесь нет композиционных выкрутасов в духе NEUROSIS, акустических извращений BORIS или инструментальной полифонии CULT OF LUNA - что ничуть не умаляет целостности и доступности материала. В совокупности музыка звучит лаконично, доходчиво и вполне убедительно, чем располагает к неоднократному прослушиванию. Зачёт.


Thanks:
(1) Kwaad,
Go to the top of the page
  Insert nick Quick quote
+Quote Post
post Jul 10 2021, 09:41:39
Post #5

Пусто
**************
Group: Металариец
Posts: 2,102
Releases: 27
From: Санкт-Петербург
On Forums: 14 years 8 months
Thanks: 1735 time(s)
Russian Federation


это надо же обвинять Аменру, что в них ничего нет, но писать вот такую ахинею:

ЦИТАТА(vosmidesijatye @ Jul 6 2021, 14:37:29) *
Cult Of Luna - эталоны стиля пост-метал, безумно талантливейшие, наиболее музыкальные, изысканные, разноплановые, короче - самые-самые.





Thanks:
(2) gena, Metalass,
Go to the top of the page
  Insert nick Quick quote
+Quote Post
post Sep 6 2021, 12:07:15
Post #6

Правь статус, ####!111
**************
Group: Металариец
Posts: 4,462
Releases: 17
From: Holland
On Forums: 15 years 2 months
Thanks: 1460 time(s)
Netherlands


Ох и хороший релиз, особенно в кассу, что на родном все исполняют. Очень атмосферный. Минималистичный, но умеющий создать нужное настроение.

Надеюсь, скоро увижу их живьем, хоть и акустический концерт, но что-то, в прошлом году оный оставил очень приятные впечатления, музыканты очень профессиональные.
Go to the top of the page
  Insert nick Quick quote
+Quote Post

Reply to this topicStart new topic
2 User(s) are reading this topic (2 Guests and 0 Anonymous Users)
0 Members:

 



- Lo-Fi Version Support form
Copyrights and abuse reports form
Time is now: 18th September 2021 - 13:46:02