Welcome Guest ( Log In | Register )

> Vnzvcht - Kapitel 1: Der Seelische Tod Eines Kindes [ep] (2021), Black Metal
post Jul 5 2021, 09:00:43
Post #1

KPN 666
**************
Group: Металариец
Posts: 2,799
Releases: 1378
From: Тегеран
On Forums: 14 years 7 months
Thanks: 20511 time(s)
Iran


(IMG:http://metalarea.org/images/audiocovers/2021_Jul/acov_tid353065_thumb.jpg)

*Artist: Vnzvcht
*Album: Kapitel 1: Der Seelische Tod Eines Kindes [ep]
*Year: 2021
*Genre: Black Metal
*Country: Austria (IMG:http://metalarea.org/forum/style_images/flags/Austria.png)
*Format: mp3@CBR320kbps
*Size: 55MB

Tracklist:
01. Hymne des Leids
02. Vertraute Unbehaglichkeit
03. Jahrzehnt der befleckten Einsamkeit
04. Gottesgräuel
05. Gesichter eines Teufels
06. Vernichtung falschsamer Hoffnung
07. Mentale Kreuzigung
08. Sprung in den Leichenfluss
******************************
Total playing time: 23:00

Technical info
(IMG:http://metalarea.org/images/spectrogram/2021_Jul/1a0d304024e9e2bec26c247727440727.png)
Input File: 01. Hymne des Leids.mp3
Channels : 2
Sample Rate : 44100
Precision : 16-bit
Duration : 00:00:00.09 = 3749 samples = 6.37585 CDDA sectors
File Size : 3.80M
Bit Rate : 358M
Sample Encoding: MPEG audio (layer I, II or III)
Comments :
Title=Hymne des Leids
Artist=Vnzvcht
Album=Kapitel 1: Der Seelische Tod eines Kindes
Tracknumber=1
Year=2021-01-24
Genre=Metal
Discnumber=1



Register


Go to the top of the page
  Insert nick Quick quote
+Quote Post
 
Start new topic
Replies (1 - 2)
post Jul 6 2021, 11:02:12
Post #2

Шесть Литров
******
Group: Металариец
Posts: 587
Releases: 21
From: Подольск
On Forums: 14 years 8 months
Thanks: 938 time(s)
Russian Federation


youtube
Go to the top of the page
  Insert nick Quick quote
+Quote Post
post Dec 14 2021, 03:54:32
Post #3

Шесть Литров
******
Group: Металариец
Posts: 604
Releases: 77
From: SteelCity, Upper Austria
On Forums: 10 years 11 months
Thanks: 1143 time(s)
Austria


Song "Sprung in den Leichenfluss" is featured as Intro/Outro on Austrian Metal News - Vol. 1


Thanks:
Go to the top of the page
  Insert nick Quick quote
+Quote Post

Reply to this topicStart new topic
2 User(s) are reading this topic (2 Guests and 0 Anonymous Users)
0 Members:

 



- Lo-Fi Version Support form
Copyrights and abuse reports form
Time is now: 24th February 2024 - 10:59:11