Welcome Guest ( Log In | Register )

> Nekrospawn - Three Ghastly Talismans From Black Lakes And Open Graves [compilation] (2021), Black Metal
post Jul 7 2021, 14:50:03
Post #1

the faceless one
Group Icon
Group: S-moderation team
Posts: 9,466
Releases: 1958
On Forums: 13 years 1 month
Thanks: 119186 time(s)
Russian Federation


(IMG:http://metalarea.org/images/audiocovers/2021_Jul/acov_tid353132_thumb.jpg)

*Artist: Nekrospawn
*Album: Three Ghastly Talismans From Black Lakes And Open Graves [compilation]
*Year: 2021
*Genre: Black Metal
*Country: Russian Federation (IMG:http://metalarea.org/forum/style_images/flags/Russian%20Federation.png)
*Format: mp3@CBR320kbps
*Size: 100MB

Tracklist:
1. Awakening 07:19
2. From The Temples Beyond 06:15
3. Obssessed By The Black Messiah 03:51
4. Dawn Of Decay 07:24
5. Beyond... 04:45
6. Hellscourge 05:22
7. XIII 06:59
******************************
Total playing time: 41:55



Extended info
Зажги линии Круга, окропи зловонной кровью вязь магических слов, соверши тёмное подношение смертельными ранами на отвратительной плоти, низвергни себя в Ад, бросившись в объятия Его! 6 6 6!


Technical info
(IMG:http://metalarea.org/images/spectrogram/2021_Jul/1074bae04cefc8eed410f0e27e5ea467.png)
Input File: 01. Awakening.mp3
Channels : 2
Sample Rate : 44100
Precision : 16-bit
Duration : 00:07:19.64 = 19388212 samples = 32973.1 CDDA sectors
File Size : 17.6M
Bit Rate : 320k
Sample Encoding: MPEG audio (layer I, II or III)
Comments :
Title=Awakening
Artist=Nekrospawn
Album=Three Ghastly Talismans from Black Lakes and Open Graves
Tracknumber=1/7
Year=2021
Genre=Black Metal



Register


Go to the top of the page
  Insert nick Quick quote
+Quote Post
 
Start new topic
Replies (1 - 6)
post Jul 7 2021, 17:24:47
Post #2

**************
Group: Металариец
Posts: 2,736
Releases: 14
From: Казань
On Forums: 12 years 1 week
Thanks: 3820 time(s)
Russian Federation


Отличный Сплав в духе Ill Omened и одержимой Экспрессии Malhkebre, грызущими червями просачивающийся на поверхность. Вечно ненасытных, чрез раны преходящих.
Хрустальная Ночь Черного Сияния.

Merging in
Reaching out


Thanks:
Go to the top of the page
  Insert nick Quick quote
+Quote Post
post Jul 7 2021, 19:33:36
Post #3

Русь Понад Усе!
**************
Group: Металариец
Posts: 4,359
Releases: 15
From: Украина
On Forums: 14 years 3 weeks
Thanks: 1787 time(s)
Ukraine


После такого отзыва качаю и слушаю по-любому (IMG:style_emoticons/default/smile1.gif)
Go to the top of the page
  Insert nick Quick quote
+Quote Post
post Jul 7 2021, 19:38:23
Post #4
BAN
Banned till
Oct 22 2021, 16:25:29



мне так Teitanblood показался.


Thanks:
(1) WOLAND,
Go to the top of the page
  Insert nick Quick quote
+Quote Post
post Jul 7 2021, 19:50:57
Post #5

Маньяк
**********
Group: Металариец
Posts: 1,188
Releases: 0
From: Днепр
On Forums: 7 years 2 months
Thanks: 654 time(s)
Unknown


Зачем третью лигу возносить? Чтобы прибить в головах неокрепших тропу к НЕМУ? (IMG:style_emoticons/default/25.gif)
Что такое Ill Omened? 1 альбом... Может, скорее, PseudogodА и братии? B то только манера войса. Слегка.
Go to the top of the page
  Insert nick Quick quote
+Quote Post
post Jul 9 2021, 12:44:57
Post #6

While Waiting the Worms
**********
Group: Металариец
Posts: 1,380
Releases: 0
On Forums: 7 years 9 months
Thanks: 2095 time(s)
Unknown


Годная тема.
Ядовито-оскаленная бесноватая блэчина, тяжёлая удушливая пелена хтонической сути.
Проведу, пожалуй, некоторые параллели с монументальным опусом от Evilwinged, почуялось мне что-то такое.


Thanks:
Go to the top of the page
  Insert nick Quick quote
+Quote Post
post Jul 12 2021, 10:56:29
Post #7
BAN
Banned till
Oct 22 2021, 16:25:29



ЦИТАТА(Sangreal @ 9th July 2021 - 16:44:57) *
Проведу, пожалуй, некоторые параллели с монументальным опусом от Evilwinged, почуялось мне что-то такое.

спасибо, что напомнил, реально цепляющая тема, учитывая, что отечественный блэк не котирую.


Thanks:
(1) abob,
Go to the top of the page
  Insert nick Quick quote
+Quote Post

Reply to this topicStart new topic
2 User(s) are reading this topic (2 Guests and 0 Anonymous Users)
0 Members:

 



- Lo-Fi Version Support form
Copyrights and abuse reports form
Time is now: 25th September 2021 - 00:48:42