Welcome Guest ( Log In | Register )

> Éla - Éla (2021), Doom/Death Metal
post Jul 7 2021, 16:50:38
Post #1

Правь статус, ####!111
**************
Group: Металариец
Posts: 27,358
Releases: 19846
From: Г.Харьков
On Forums: 9 years 4 months
Thanks: 399540 time(s)
Unknown


(IMG:https://metalarea.org/images/audiocovers/2021_Jul/acov_tid353138_thumb.jpg)

*Artist: Éla
*Album: Éla
*Year: 2021
*Genre: Doom/Death Metal
*Country: Italy (IMG:https://metalarea.org/forum/style_images/flags/Italy.png)
*Format: mp3@CBR320kbps
*Size: 106MB

Tracklist:
1. Éla 07:12
2. Tears 05:19
3. Warriors of the White War 05:41
4. The Old Mimoid 05:06
5. Pan 06:16
6. Possession 06:10
7. The Lighthouse 06:30
8. Begotten 04:42
******************************
Total playing time: 46:56




Extended info
Lorenzo Bass
Corrado Menegatti Drums
See also: Sign of the Jackal, ex-Final Fright, ex-Nimroth, ex-The Beyond
Cory Guitars
MarcoSg Guitars, Vocals



Technical info
(IMG:https://metalarea.org/images/spectrogram/2021_Jul/37b7bc0c3b02fd902a80d5c58bde2c51.png)
Input File: 06 - Possession.mp3
Channels : 2
Sample Rate : 44100
Precision : 16-bit
Duration : 00:06:09.15 = 16279691 samples = 27686.5 CDDA sectors
File Size : 14.8M
Bit Rate : 320k
Sample Encoding: MPEG audio (layer I, II or III)
Comments :
Title=Possession
Artist=Éla
Album=Éla
Tracknumber=6
Year=2021
Genre=Metal



Register


Go to the top of the page
  Insert nick Quick quote
+Quote Post
 
Start new topic
Replies (1 - 2)
post Jul 10 2021, 02:34:21
Post #2

Четыре Литра
****
Group: Металариец
Posts: 316
Releases: 0
On Forums: 3 years 7 months
Thanks: 125 time(s)
Belarus


Какой-то примитив с перегруженными гитарами. Смерть ушам.


Thanks:
Go to the top of the page
  Insert nick Quick quote
+Quote Post
post Jul 10 2021, 10:59:07
Post #3

Ледоруб
**************
Group: Металариец
Posts: 28,742
Releases: 0
From: Санкт-Петербург
On Forums: 12 years 1 week
Thanks: 10344 time(s)
Russian Federation


ЦИТАТА(GRAF @ 10th July 2021 - 04:34:21) *
Смерть ушам.

Они у тебя при рождении погибли.
Go to the top of the page
  Insert nick Quick quote
+Quote Post

Reply to this topicStart new topic
1 User(s) are reading this topic (1 Guests and 0 Anonymous Users)
0 Members:

 



- Lo-Fi Version Support form
Copyrights and abuse reports form
Time is now: 18th September 2021 - 14:37:46