Welcome Guest ( Log In | Register )

> И неформату есть предел.

Рэп/хип-хоп/шансон/поп удаляются. Для них есть свои порталы.

> Jess And The Ancient Ones - Vertigo (2021), Psychedelic Rock (D7)
post Jul 8 2021, 21:09:55
Post #1

𝕻𝕬𝕹𝕬𝕮𝕰𝕬
*********
Group: Металариец
Posts: 947
Releases: 557
On Forums: 9 years 3 months
Thanks: 10168 time(s)
Unknown


(IMG:https://metalarea.org/images/audiocovers/2021_Jul/acov_tid353186_thumb.jpg)

*Artist: Jess And The Ancient Ones
*Album: Vertigo
*Year: 2021
*Genre: Psychedelic Rock
*Country: Finland (IMG:https://metalarea.org/forum/style_images/flags/Finland.png)
*Format: mp3@CBR320kbps
*Size: 92MB

Tracklist:
1. Burning Of The Velvet Fires 04:39
2. World Paranormal 03:30
3. Talking Board 05:01
4. Love Zombi 04:39
5. Summer Tripping Man 02:56
6. Born To Kill 04:07
7. What's On Your Mind 03:54
8. Strange Earth Illusion 11:34
******************************
Total playing time: 40:20



Technical info
(IMG:https://metalarea.org/images/spectrogram/2021_Jul/12ff07c8b613bc35b8f71e74c941f51d.png)
Input File: 02 - World Paranormal.mp3
Channels : 2
Sample Rate : 44100
Precision : 16-bit
Duration : 00:03:30.00 = 9261000 samples = 15750 CDDA sectors
File Size : 8.41M
Bit Rate : 320k
Sample Encoding: MPEG audio (layer I, II or III)
Comments :
Title=World Paranormal
Artist=Jess And The Ancient Ones
Album=Vertigo
Tracknumber=2
Year=2021
Genre=Psychedelic Rock



Register


Go to the top of the page
  Insert nick Quick quote
+Quote Post
 
Start new topic
Replies (1 - 6)
post Jul 9 2021, 22:58:18
Post #2

Override the Overture
*******
Group: Металариец
Posts: 721
Releases: 0
From: Moscow
On Forums: 13 years 8 months
Thanks: 166 time(s)
Russian Federation


Фантастически круто, впрочем, как и всегда это случается с Джесс
А Summer Trippin Man будет моим личным гимном отпуска этим летом
Go to the top of the page
  Insert nick Quick quote
+Quote Post
post Jul 9 2021, 23:17:44
Post #3

Правь статус, ####!111
**************
Group: Металариец
Posts: 49,218
Releases: 869
On Forums: 12 years 3 months
Thanks: 44691 time(s)
Russian Federation


Ну это зело отличная новость, конечно (IMG:style_emoticons/default/20.gif) Кстати, у Джесс не так давно вышел сольник, не менее охрененный, чем основной проект -
Jess By The Lake - Under The Red Light Shine (2019)


Thanks:
(1) Amadeus,
Go to the top of the page
  Insert nick Quick quote
+Quote Post
post Jul 10 2021, 05:25:34
Post #4

Group: Подсевший
Posts: 32
Releases: 0
From: Tehran
On Forums: 10 years 1 month
Thanks: 2 time(s)
Unknown


great cover
Go to the top of the page
  Insert nick Quick quote
+Quote Post
post Jul 10 2021, 07:17:27
Post #5

дьявол воплоти
**********
Group: Металариец
Posts: 1,102
Releases: 7
On Forums: 11 years 2 weeks
Thanks: 1427 time(s)
Ukraine


о. не самые центровые из винтажмонтажных, но на безптичье, как говорится, и жoпа соловей.

оказывается, альбом с мая в сети болтается.
о - оперативность.
Go to the top of the page
  Insert nick Quick quote
+Quote Post
post Jul 11 2021, 20:06:41
Post #6

дьявол воплоти
**********
Group: Металариец
Posts: 1,102
Releases: 7
On Forums: 11 years 2 weeks
Thanks: 1427 time(s)
Ukraine


из всей этой кококультной волны эти ребята, наверно, больше всех стараются соответствовать пресловутому духу той эпохи.
именно поэтому они так безнадежно унылы.

этот альбом, впрочем, парадоксальным образом удался, то есть его можно и даже нужно слушать.
реально хорошая работа, не гениальная, не блестящая, просто хорошая, типа альбомов purson
(ну может чуть похуже, потому что розали сама по себе бесподобна, а жасмин, прямо скажем, на богиню не выгребает).


Thanks:
(1) Thiarnan,
Go to the top of the page
  Insert nick Quick quote
+Quote Post
post Jul 14 2021, 10:19:15
Post #7

Правь статус, ####!111
**************
Group: Металариец
Posts: 49,218
Releases: 869
On Forums: 12 years 3 months
Thanks: 44691 time(s)
Russian Federation


Бодрый и энергичный альбом, вокал выше всяких похвал (IMG:style_emoticons/default/20.gif)
Go to the top of the page
  Insert nick Quick quote
+Quote Post

Reply to this topicStart new topic
1 User(s) are reading this topic (1 Guests and 0 Anonymous Users)
0 Members:

 



- Lo-Fi Version Support form
Copyrights and abuse reports form
Time is now: 25th September 2021 - 14:41:16