Welcome Guest ( Log In | Register )

> Правила / Rules

Тут только для чтения лежат низкобитрейтные (<192kbps) релизы, для которых есть аналоги в высокобитрейтных форумах.

Here goes (and stand in read only mode) low bitrate releases (<192kbps) which were already replaced by high bitrate releases in corresponding forums.

> Vulture Lord - Desecration Rite (2021), Black/Thrash Metal (D)
post Jul 10 2021, 17:22:27
Post #1

𝕻𝕬𝕹𝕬𝕮𝕰𝕬
*********
Group: Металариец
Posts: 947
Releases: 557
On Forums: 9 years 3 months
Thanks: 10151 time(s)
Unknown


(IMG:https://metalarea.org/images/audiocovers/2021_Jul/acov_tid353266_thumb.jpg)

*Artist: Vulture Lord
*Album: Desecration Rite
*Year: 2021
*Genre: Black/Thrash Metal
*Country: Norway (IMG:https://metalarea.org/forum/style_images/flags/Norway.png)
*Format: mp3@CBR256kbps
*Size: 77MB

Tracklist:
1. Glorification Of The Dethronation 00:59
2. Bloodbound Militia 03:14
3. Stillborn Messiah 05:07
4. The Vulture Lord 04:47
5. Diabolical Intervention 03:53
6. Prepare The Coffin 04:02
7. Beneficial Martyrdom 04:32
8. Burning The Kingdom Of God 05:23
9. Perverting The Bible 06:15
******************************
Total playing time: 38:12



Technical info
(IMG:https://metalarea.org/images/spectrogram/2021_Jul/feeebfb4675e326a71293f21377df5fd.png)
Input File: 02 - Bloodbound Militia.mp3
Channels : 2
Sample Rate : 44100
Precision : 16-bit
Duration : 00:03:15.15 = 8605983 samples = 14636 CDDA sectors
File Size : 7.14M
Bit Rate : 293k
Sample Encoding: MPEG audio (layer I, II or III)
Comments :
Title=Bloodbound Militia
Artist=Vulture Lord
Album=Desecration Rite
Tracknumber=02
Year=2021
Genre=Black/Thrash Metal



Register


Go to the top of the page
  Insert nick Quick quote
+Quote Post
 
Start new topic
Replies (1 - 2)
post Jul 11 2021, 12:12:03
Post #2

Up From The Grave
********
Group: Металариец
Posts: 893
Releases: 122
From: Minsk
On Forums: 12 years 2 months
Thanks: 2412 time(s)
Belarus




Go to the top of the page
  Insert nick Quick quote
+Quote Post
post Aug 20 2021, 17:30:11
Post #3

Правь статус, ####!111
**************
Group: Металариец
Posts: 27,343
Releases: 19832
From: Г.Харьков
On Forums: 9 years 4 months
Thanks: 398918 time(s)
Unknown


320 89 mb
Register
Go to the top of the page
  Insert nick Quick quote
+Quote Post

Причина закрытия (Абигор 20-08-2021): Vulture Lord - Desecration Rite (2021)
Closed TopicStart new topic
2 User(s) are reading this topic (2 Guests and 0 Anonymous Users)
0 Members:

 



- Lo-Fi Version Support form
Copyrights and abuse reports form
Time is now: 16th September 2021 - 23:35:26