Welcome Guest ( Log In | Register )

> Правила / Rules

Тут только для чтения лежат низкобитрейтные (<192kbps) релизы, для которых есть аналоги в высокобитрейтных форумах.

Here goes (and stand in read only mode) low bitrate releases (<192kbps) which were already replaced by high bitrate releases in corresponding forums.

> Pâlemort - Tour Du Nord (2021), Black Metal
post Jul 10 2021, 23:32:17
Post #1

Malum dominus omnium
****
Group: Металариец
Posts: 370
Releases: 279
On Forums: 2 years 7 months
Thanks: 6149 time(s)
Vatican City


(IMG:https://metalarea.org/images/audiocovers/2021_Jul/acov_tid353275_thumb.jpg)

*Artist: Pâlemort
*Album: Tour Du Nord
*Year: 2021
*Genre: Black Metal
*Country: Canada (IMG:https://metalarea.org/forum/style_images/flags/Canada.png)
*Format: mp3@CBR320kbps
*Size: 78MB

Tracklist:
1. Prologue 02:09
2. Rupture 04:34
3. Rex Judaeorum 06:10
4. Puissance profane 04:19
5. Laurentides II 03:57
6. Chevauchant l'immensité 05:41
7. Coprinopsis Psychromorbida 06:20
******************************
Total playing time: 33:10

Metal Archives
(IMG:https://metalarea.org/images/youtube.png)

Technical info
(IMG:https://metalarea.org/images/spectrogram/2021_Jul/e7904259f32466b65cc0f71203fa004e.png)
Input File: Pâlemort -1 Prologue.mp3
Channels : 2
Sample Rate : 48000
Precision : 16-bit
Duration : 00:02:09.20 = 6201600 samples ~ 9690 CDDA sectors
File Size : 5.17M
Bit Rate : 320k
Sample Encoding: MPEG audio (layer I, II or III)
Comments :
Title=Prologue
Artist=Pâlemort
Album=Tour du Nord
Tracknumber=1
Year=2021
Genre=Black Metal



Register


Go to the top of the page
  Insert nick Quick quote
+Quote Post
 
Start new topic
Replies (1 - 6)
post Jul 13 2021, 23:08:31
Post #2

Пять Литров
*****
Group: Металариец
Posts: 434
Releases: 10
On Forums: 15 years 7 months
Thanks: 594 time(s)
French Southern Territories


It's an youtube rip and not a 320 one.
Go to the top of the page
  Insert nick Quick quote
+Quote Post
post Jul 26 2021, 10:31:02
Post #3

Austenite
**************
Group: Металариец
Posts: 3,165
Releases: 1
From: Менск
On Forums: 11 years 10 months
Thanks: 1398 time(s)
Madagascar


Sounds ok
Go to the top of the page
  Insert nick Quick quote
+Quote Post
post Aug 24 2021, 18:02:09
Post #4

Пять Литров
*****
Group: Металариец
Posts: 422
Releases: 9
From: Planet Earth
On Forums: 7 years 1 week
Thanks: 851 time(s)
Palau


ЦИТАТА(elsunga @ Jul 13 2021, 23:08:31) *
It's an youtube rip and not a 320 one.

(IMG:https://i.ibb.co/6y4CzrP/nord21.jpg)
Go to the top of the page
  Insert nick Quick quote
+Quote Post
post Sep 3 2021, 04:54:17
Post #5

Три Литра
***
Group: Завсегдатай
Posts: 220
Releases: 0
On Forums: 3 years 4 days
Thanks: 24 time(s)
United States


No one has a real rip of this?
Go to the top of the page
  Insert nick Quick quote
+Quote Post
post Dec 29 2021, 16:59:43
Post #6

Три Литра
***
Group: Завсегдатай
Posts: 220
Releases: 0
On Forums: 3 years 4 days
Thanks: 24 time(s)
United States


You'd think this would get a real rip by now

Sadly this release has ONLY been released on Vinyl, however some of us can't collect vinyl. I live in an RV, vinyl records would eventually warp in the heat of my vehicle so I can't buy vinyl.
Go to the top of the page
  Insert nick Quick quote
+Quote Post
post Dec 29 2021, 17:20:14
Post #7

а ты попал в даунтаун
***********
Group: Металариец
Posts: 1,631
Releases: 59
From: Москва
On Forums: 13 years 5 months
Thanks: 4456 time(s)
Russian Federation


ЦИТАТА(Nomadwarfukk @ 29th December 2021 - 18:59:43) *
Sadly this release has ONLY been released on Vinyl, however some of us can't collect vinyl. I live in an RV, vinyl records would eventually warp in the heat of my vehicle so I can't buy vinyl.
https://t-d-g.net/products/palemort-tour-du...-sleeve-t-shirt
(IMG:style_emoticons/default/25.gif)


Thanks:
Go to the top of the page
  Insert nick Quick quote
+Quote Post

Причина закрытия (Хогги 23-02-2022):
Closed TopicStart new topic
2 User(s) are reading this topic (2 Guests and 0 Anonymous Users)
0 Members:

 



- Lo-Fi Version Support form
Copyrights and abuse reports form
Time is now: 25th September 2022 - 12:54:41