Welcome Guest ( Log In | Register )

> И неформату есть предел.

Рэп/хип-хоп/шансон/поп удаляются. Для них есть свои порталы.

> Haxan Dreams - Path Through The Realm (2018), Dungeon Synth
post Jul 11 2021, 18:44:51
Post #1

Правь статус, ####!616
**************
Group: Металариец
Posts: 6,990
Releases: 5441
From: 55°35’N 38°08’E
On Forums: 13 years 2 months
Thanks: 99643 time(s)
Unknown


(IMG:https://metalarea.org/images/audiocovers/2021_Jul/acov_tid353315_thumb.jpg)

*Artist: Haxan Dreams
*Album: Path Through The Realm
*Year: 2018
*Genre: Dungeon Synth
*Country: Finland (IMG:https://metalarea.org/forum/style_images/flags/Finland.png)
*Format: mp3@CBR320kbps
*Size: 116MB

Tracklist:
1.The Realm 07:36
2.Mountain Passage 05:41
3.Forest Of Idran 05:01
4.Love And The Abyss 05:55
5.Battle Of Twin Mountains 07:20
6.Dance Of The Coven 07:17
7.To Dwell In Darkness 11:22
******************************
Total playing time: 50:12





Technical info
(IMG:https://metalarea.org/images/spectrogram/2021_Jul/57230d8fc33f0d3ca904478fffb2bc05.png)
Input File: 01 The Realm.mp3
Channels : 2
Sample Rate : 44100
Precision : 16-bit
Duration : 00:07:36.13 = 20115157 samples = 34209.5 CDDA sectors
File Size : 18.4M
Bit Rate : 323k
Sample Encoding: MPEG audio (layer I, II or III)
Comments :
Title=The Realm
Artist=Haxan Dreams
Album=Path Through the Realm
Tracknumber=1/7
Year=2019
Genre=Ambient
Discnumber=1/1



Register


Thanks:
Go to the top of the page
  Insert nick Quick quote
+Quote Post
 
Start new topic
Replies (1 - 1)
post Jul 13 2021, 18:41:33
Post #2

Два Литра
**
Group: Завсегдатай
Posts: 165
Releases: 0
On Forums: 3 months 1 week
Thanks: 132 time(s)
Unknown


Приятный и каноничный Dungeon Synth из Суоми. С одной стороны ничего особенного, а с другой очень хорошо идет фоном + здесь нет переборов с "героичностью" в клавишных, общий настрой скорее мрачно-грустный. Но это однозначно зачёт
Go to the top of the page
  Insert nick Quick quote
+Quote Post

Reply to this topicStart new topic
2 User(s) are reading this topic (2 Guests and 0 Anonymous Users)
0 Members:

 



- Lo-Fi Version Support form
Copyrights and abuse reports form
Time is now: 25th September 2021 - 12:36:18