Welcome Guest ( Log In | Register )

 
Reply to this topicStart new topic
> Deipnosophist - The Utopian (2021), Melodic Death Metal
post Jul 12 2021, 10:09:23
Post #1

MDM-Thrash Metal
**************
Group: Металариец
Posts: 10,580
Releases: 1309
From: Одесса
On Forums: 14 years 1 month
Thanks: 31652 time(s)
Ukraine


(IMG:http://metalarea.org/images/audiocovers/2021_Jul/acov_tid353328_thumb.jpg)

*Artist: Deipnosophist
*Album: The Utopian
*Year: 2021
*Genre: Melodic Death Metal
*Country: Guatemala (IMG:http://metalarea.org/forum/style_images/flags/Guatemala.png)
*Format: mp3@CBR320kbps
*Size: 73MB

Tracklist:
01. The Exordium
02. The Utopian
03. The Redeemer
04. The Awakening
05. The Insomniac
06. The Wanderer
07. The Blackened
08. The Aftermath
******************************
Total playing time: 30:52

(IMG:http://metalarea.org/images/youtube.png)
(IMG:http://metalarea.org/images/youtube.png)
(IMG:http://metalarea.org/images/youtube.png)


Technical info
(IMG:http://metalarea.org/images/spectrogram/2021_Jul/79e981ad2dedfb6b27628147f02b8e9a.png)
Input File: 02. The Utopian.mp3
Channels : 2
Sample Rate : 44100
Precision : 16-bit
Duration : 00:04:21.19 = 11518435 samples = 19589.2 CDDA sectors
File Size : 10.5M
Bit Rate : 323k
Sample Encoding: MPEG audio (layer I, II or III)
Comments :
Title=The Utopian
Artist=Deipnosophist
Album=The Utopian
Tracknumber=2
Year=2021
Discnumber=1



Register


Go to the top of the page
  Insert nick Quick quote
+Quote Post

Reply to this topicStart new topic
1 User(s) are reading this topic (1 Guests and 0 Anonymous Users)
0 Members:

 



- Lo-Fi Version Support form
Copyrights and abuse reports form
Time is now: 16th September 2021 - 22:18:40