Welcome Guest ( Log In | Register )

 
Reply to this topicStart new topic
> Austral Kult - Speak Of The Devil (2021), Black Metal
post Jul 12 2021, 16:45:07
Post #1

Правь статус, ####!111
**************
Group: Металариец
Posts: 4,360
Releases: 4004
From: Одесса
On Forums: 13 years 4 months
Thanks: 44233 time(s)
Ukraine


(IMG:http://metalarea.org/images/audiocovers/2021_Jul/acov_tid353340_thumb.jpg)

*Artist: Austral Kult
*Album: Speak Of The Devil
*Year: 2021
*Genre: Black Metal
*Country: Colombia (IMG:http://metalarea.org/forum/style_images/flags/Colombia.png)
*Format: mp3@CBR128kbps (IMG:http://metalarea.org/images/bit_low.gif)
*Size: 56MB

Tracklist:
1. From the Ashes to Infinity 05:41
2. Son of Chaos 06:08
3. The Seal of Solomon 05:17
4. Behold the Dark Necromacy 07:58
5. To the Deepest Void 06:36
6. Betrayers 06:17
7. Nullius in Verba 07:12
8. Speak of the Devil 09:40
9. For Those Who Lie in Disgrace 03:59
******************************
Total playing time: 58:48



Technical info
(IMG:http://metalarea.org/images/spectrogram/2021_Jul/8a675b014149180c5bc100e85823db8d.png)
Input File: 03 - The Seal of Solomon.mp3
Channels : 2
Sample Rate : 44100
Precision : 16-bit
Duration : 00:05:17.29 = 13992665 samples = 23797 CDDA sectors
File Size : 5.08M
Bit Rate : 128k
Sample Encoding: MPEG audio (layer I, II or III)
Comments :
Title=The Seal of Solomon
Artist=Austral Kult
Album=Speak of the Devil
Tracknumber=3
Year=2021
Genre=138



Register


Go to the top of the page
  Insert nick Quick quote
+Quote Post

Reply to this topicStart new topic
2 User(s) are reading this topic (2 Guests and 0 Anonymous Users)
0 Members:

 



- Lo-Fi Version Support form
Copyrights and abuse reports form
Time is now: 28th October 2021 - 21:53:31