Welcome Guest ( Log In | Register )

 
Reply to this topicStart new topic
> Heil To The Empire - Materia (2020), Heavy/Stoner Metal
post Jul 12 2021, 18:52:43
Post #1

Правь статус, ####!111
**************
Group: Металариец
Posts: 4,360
Releases: 4004
From: Одесса
On Forums: 13 years 4 months
Thanks: 44233 time(s)
Ukraine


(IMG:http://metalarea.org/images/audiocovers/2021_Jul/acov_tid353344_thumb.jpg)

*Artist: Heil To The Empire
*Album: Materia
*Year: 2020
*Genre: Heavy/Stoner Metal
*Country: Italy (IMG:http://metalarea.org/forum/style_images/flags/Italy.png)
*Format: mp3@CBR320kbps
*Size: 75MB

Tracklist:
1. By Our Hate 04:28
2. If I Was God 03:55
3. No Time Left 04:53
4. Save Me Again 04:34
5. Nothing to Say More 05:42
6. The Game 04:01
7. You Know Who You Are 05:30
******************************
Total playing time: 33:03

Extended info
В ЛОУ

Line - up:

Mirko Boggioni - Bass
Antonio De Bernardis - Drums (ex-PWR)
Stefano La Rosa - Guitars (ex-PWR)
Ermes Pecorari - Vocals (ex-Abnegate, ex-PWR)



Technical info
(IMG:http://metalarea.org/images/spectrogram/2021_Jul/da1f0616d50c040750da4cc9dfe817bd.png)
Input File: 05 - Save Me Again.mp3
Channels : 2
Sample Rate : 44100
Precision : 16-bit
Duration : 00:04:34.15 = 12089883 samples = 20561 CDDA sectors
File Size : 11.0M
Bit Rate : 321k
Sample Encoding: MPEG audio (layer I, II or III)
Comments :
Title=Save Me Again
Artist=Heil to the Empire
Album=Materia
Tracknumber=5
Year=2020
Genre=Heavy/Stoner Metal



Register


Go to the top of the page
  Insert nick Quick quote
+Quote Post

Reply to this topicStart new topic
1 User(s) are reading this topic (1 Guests and 0 Anonymous Users)
0 Members:

 



- Lo-Fi Version Support form
Copyrights and abuse reports form
Time is now: 28th October 2021 - 21:59:48