Welcome Guest ( Log In | Register )

> Arkham Dream - Origins Of Madness (2011), Symphonic Death Metal
post Jul 13 2021, 16:29:32
Post #1

Group: Подсевший
Posts: 32
Releases: 15
On Forums: 5 months 2 weeks
Thanks: 136 time(s)
Unknown


(IMG:https://metalarea.org/images/audiocovers/2021_Jul/acov_tid353372_thumb.jpg)

*Artist: Arkham Dream
*Album: Origins Of Madness
*Year: 2011
*Genre: Symphonic Death Metal
*Country: Mexico (IMG:https://metalarea.org/forum/style_images/flags/Mexico.png)
*Format: mp3@CBR320kbps
*Size: 102MB

Tracklist:
1. Delirium 01:53
2. Immortals 05:53
3. Through the Madness 05:01
4. Seas of Rage 04:42
5. Between Gods 04:50
6. Away 05:12
7. Oblivion 05:45
8. A Divine Hate (The Other Way Part 1) 06:08
9. In the Eternity 05:17
******************************
Total playing time: 44:41

Technical info
(IMG:https://metalarea.org/images/spectrogram/2021_Jul/3ff1e0c59fd1c5c6e0771690320ae41c.png)
Input File: 03 - Through the Madness.mp3
Channels : 2
Sample Rate : 44100
Precision : 16-bit
Duration : 00:05:00.72 = 13261532 samples = 22553.6 CDDA sectors
File Size : 12.2M
Bit Rate : 323k
Sample Encoding: MPEG audio (layer I, II or III)
Comments :
Title=Through the Madness
Artist=Arkham Dream



Register


Go to the top of the page
  Insert nick Quick quote
+Quote Post
 
Start new topic
Replies (1 - 1)
post Jul 20 2021, 01:31:13
Post #2

Шесть Литров
******
Group: Металариец
Posts: 564
Releases: 0
From: Москва
On Forums: 14 years 11 months
Thanks: 123 time(s)
Russian Federation


Ну не симфодэт же не разу. Есть нечастые проходы, даже не соло, на ровеснике "и, конечно, Ионики" между сыгранными целыми нотами подкладами, вокалист тужится выдать пивную отрыжку за аццкий харш, дополняют картину хэви-металльно-триольные "коняшки" и Зум-505 человека с гитарой. Лучше бы текилу делали (IMG:style_emoticons/default/13.gif)
Go to the top of the page
  Insert nick Quick quote
+Quote Post

Reply to this topicStart new topic
2 User(s) are reading this topic (2 Guests and 0 Anonymous Users)
0 Members:

 



- Lo-Fi Version Support form
Copyrights and abuse reports form
Time is now: 16th October 2021 - 09:45:56