Welcome Guest ( Log In | Register )

 
Reply to this topicStart new topic
> Incinerate - De Profundus [demo] (2021), Death/Thrash Metal (D9)
post Jul 13 2021, 16:53:37
Post #1

Group: Подсевший
Posts: 31
Releases: 15
On Forums: 4 months 2 weeks
Thanks: 134 time(s)
Unknown


(IMG:https://metalarea.org/images/audiocovers/2021_Jul/acov_tid353379_thumb.jpg)

*Artist: Incinerate
*Album: De Profundus [demo]
*Year: 2021
*Genre: Death/Thrash Metal
*Country: Peru (IMG:https://metalarea.org/forum/style_images/flags/Peru.png)
*Format: mp3@CBR320kbps
*Size: 40MB

Tracklist:
1. Perpetual Lies 04:37
2. Blackened Evil Sphere 04:19
3. Calvarium 04:46
4. De Profundus Clamo Adite Domini 06:16
******************************
Total playing time: 19:58

Technical info
(IMG:https://metalarea.org/images/spectrogram/2021_Jul/2557f3dcbd7fd10890490aad59bc8441.png)
Input File: 02 - Perpetual Lies.mp3
Channels : 2
Sample Rate : 44100
Precision : 16-bit
Duration : 00:04:37.15 = 12222359 samples = 20786.3 CDDA sectors
File Size : 11.2M
Bit Rate : 323k
Sample Encoding: MPEG audio (layer I, II or III)
Comment : 'Title=Incinerate Perpetual Lies'



Register


Go to the top of the page
  Insert nick Quick quote
+Quote Post

Reply to this topicStart new topic
1 User(s) are reading this topic (1 Guests and 0 Anonymous Users)
0 Members:

 



- Lo-Fi Version Support form
Copyrights and abuse reports form
Time is now: 16th September 2021 - 22:00:28