Welcome Guest ( Log In | Register )

> И неформату есть предел.

Рэп/хип-хоп/шансон/поп удаляются. Для них есть свои порталы.

> Rostro Del Sol - Rostro Del Sol (2021), Psychedelic Jazz
post Jul 13 2021, 18:13:37
Post #1

Правь статус, ####!111
**************
Group: Металариец
Posts: 49,245
Releases: 874
On Forums: 12 years 4 months
Thanks: 44814 time(s)
Russian Federation


(IMG:http://metalarea.org/images/audiocovers/2021_Jul/acov_tid353389_thumb.jpg)

*Artist: Rostro Del Sol
*Album: Rostro Del Sol
*Year: 2021
*Genre: Psychedelic Jazz
*Country: Mexico (IMG:http://metalarea.org/forum/style_images/flags/Mexico.png)
*Format: mp3@CBR320kbps
*Size: 94MB

Tracklist:
1. Effect Of Creation 08:53
2. Solar Flare 02:51
3. Backyard's Blues 06:28
4. Bop C Sketches 07:08
5. Tales... I-III 07:24
6. Cynical Mind 08:15
******************************
Total playing time: 40:59



Technical info
(IMG:http://metalarea.org/images/spectrogram/2021_Jul/de7ded9ca7f12017b0d69b15cbeadea2.png)
Input File: 01 - Effect Of Creation.mp3
Channels : 2
Sample Rate : 44100
Precision : 16-bit
Duration : 00:08:53.08 = 23509004 samples = 39981.3 CDDA sectors
File Size : 21.5M
Bit Rate : 323k
Sample Encoding: MPEG audio (layer I, II or III)
Comments :
Title=Effect Of Creation
Artist=Rostro Del Sol
Album=Rostro del Sol
Genre=Psychedelic Rock



Register


Go to the top of the page
  Insert nick Quick quote
+Quote Post
 
Start new topic
Replies (1 - 1)
post Jul 14 2021, 10:14:09
Post #2

Правь статус, ####!111
**************
Group: Металариец
Posts: 49,245
Releases: 874
On Forums: 12 years 4 months
Thanks: 44814 time(s)
Russian Federation


Прекрасный релиз (IMG:style_emoticons/default/20.gif)
Go to the top of the page
  Insert nick Quick quote
+Quote Post

Reply to this topicStart new topic
1 User(s) are reading this topic (1 Guests and 0 Anonymous Users)
0 Members:

 



- Lo-Fi Version Support form
Copyrights and abuse reports form
Time is now: 16th October 2021 - 04:20:17