Welcome Guest ( Log In | Register )

> Lacrota - Nuckelavee [ep] (2014), Progressive Death Metal
post Jul 13 2021, 18:31:08
Post #1

Group: Подсевший
Posts: 31
Releases: 15
On Forums: 4 months 3 weeks
Thanks: 134 time(s)
Unknown


(IMG:https://metalarea.org/images/audiocovers/2021_Jul/acov_tid353392_thumb.jpg)

*Artist: Lacrota
*Album: Nuckelavee [ep]
*Year: 2014
*Genre: Progressive Death Metal
*Country: United Kingdom (IMG:https://metalarea.org/forum/style_images/flags/United%20Kingdom.png)
*Format: mp3@VBR128kbps (IMG:https://metalarea.org/images/bit_low.gif)
*Size: 18MB

Tracklist:
1. Skin Clown 04:47
2. We Can Always Grow New Limbs 04:49
3. Arachnid Egg Sac 05:30
4. Nuckelavee 03:57
******************************
Total playing time: 19:03

Technical info
(IMG:https://metalarea.org/images/spectrogram/2021_Jul/fdf7e4dd61e94dcef029cd7970956df2.png)
Input File: Lacrota - Nuckelavee - 02 - We Can Always Grow New Limbs.mp3
Channels : 2
Sample Rate : 44100
Precision : 16-bit
Duration : 00:04:49.55 = 12769155 samples = 21716.2 CDDA sectors
File Size : 4.82M
Bit Rate : 133k
Sample Encoding: MPEG audio (layer I, II or III)
Comments :
Title=We Can Always Grow New Limbs
Artist=Lacrota
Album=Nuckelavee
Tracknumber=02
Year=2014
Genre=Death Metal



Register


Go to the top of the page
  Insert nick Quick quote
+Quote Post
 
Start new topic
Replies (1 - 1)
post Jul 24 2021, 15:41:24
Post #2

Шесть Литров
******
Group: Металариец
Posts: 539
Releases: 0
From: Санкт-Петербург
On Forums: 13 years 11 months
Thanks: 147 time(s)
Russian Federation


А разве его беслатно нельзя скачать - хоть во FLAC?


Go to the top of the page
  Insert nick Quick quote
+Quote Post

Reply to this topicStart new topic
1 User(s) are reading this topic (1 Guests and 0 Anonymous Users)
0 Members:

 



- Lo-Fi Version Support form
Copyrights and abuse reports form
Time is now: 25th September 2021 - 13:30:14