Welcome Guest ( Log In | Register )

 
Reply to this topicStart new topic
> Murdering Murders - Criminal Record [demo] (2012), Death Metal/Grindcore
post Jul 13 2021, 18:38:54
Post #1

Group: Подсевший
Posts: 32
Releases: 15
On Forums: 5 months 3 weeks
Thanks: 136 time(s)
Unknown


(IMG:https://metalarea.org/images/audiocovers/2021_Jul/acov_tid353393_thumb.jpg)

*Artist: Murdering Murders
*Album: Criminal Record [demo]
*Year: 2012
*Genre: Death Metal/Grindcore
*Country: Sweden (IMG:https://metalarea.org/forum/style_images/flags/Sweden.png)
*Format: mp3@CBR320kbps
*Size: 44MB

Tracklist:
1. Bicycle Thief 02:21
2. Necro Bordello 02:54
3. Crime Pays 02:23
4. Both Must Die 01:52
5. Cut in Line 04:10
6. Time to Change Face 02:05
7. Suicide by Hammer 04:39
******************************
Total playing time: 20:24

Technical info
(IMG:https://metalarea.org/images/spectrogram/2021_Jul/7b24565d1b68427f4515d771a98b79ec.png)
Input File: Murdering Murders - Necro Bordello.mp3
Channels : 2
Sample Rate : 44100
Precision : 16-bit
Duration : 00:02:49.31 = 7466659 samples = 12698.4 CDDA sectors
File Size : 6.85M
Bit Rate : 324k
Sample Encoding: MPEG audio (layer I, II or III)
Comments :
Title=Necro Bordello
Artist=Murdering Murders
Album=Criminal Record
Tracknumber=2/7
Year=2012



Register


Go to the top of the page
  Insert nick Quick quote
+Quote Post

Reply to this topicStart new topic
1 User(s) are reading this topic (1 Guests and 0 Anonymous Users)
0 Members:

 



- Lo-Fi Version Support form
Copyrights and abuse reports form
Time is now: 23rd October 2021 - 20:34:21