Welcome Guest ( Log In | Register )

 
Reply to this topicStart new topic
> Reincarnated - Grenadier [ep] (2003), Death Metal
post Jul 14 2021, 12:48:41
Post #1

Подвал
**************
Group: Металариец
Posts: 16,425
Releases: 9386
From: Far East (Khabarovsk)
On Forums: 12 years 8 months
Thanks: 106814 time(s)
Russian Federation


(IMG:http://metalarea.org/images/audiocovers/2021_Jul/acov_tid353403_thumb.jpg)

*Artist: Reincarnated
*Album: Grenadier [ep]
*Year: 2003
*Genre: Death Metal
*Country: Germany (IMG:http://metalarea.org/forum/style_images/flags/Germany.png)
*Format: mp3@CBR192kbps
*Size: 24MB

Tracklist:
1. Mindkiller 05:12
2. Against Human Creatures 04:13
3. Grenadier 03:29
4. One Step Closer 05:13
******************************
Total playing time: 18:07

Technical info
(IMG:http://metalarea.org/images/spectrogram/2021_Jul/5f3270df83009a46accb860e8e60558c.png)
Input File: 01-Mindkiller.mp3
Channels : 2
Sample Rate : 44100
Precision : 16-bit
Duration : 00:05:09.23 = 13636867 samples = 23192 CDDA sectors
File Size : 7.42M
Bit Rate : 192k
Sample Encoding: MPEG audio (layer I, II or III)
Comments :
Title=Mindkiller
Artist=Reincarnated (Ger)
Album=Grenadier (EP)
Tracknumber=01
Year=2003
Genre=Death Metal



Register


Go to the top of the page
  Insert nick Quick quote
+Quote Post

Reply to this topicStart new topic
1 User(s) are reading this topic (1 Guests and 0 Anonymous Users)
0 Members:

 



- Lo-Fi Version Support form
Copyrights and abuse reports form
Time is now: 23rd October 2021 - 22:02:06