Welcome Guest ( Log In | Register )

 
Reply to this topicStart new topic
> Tomb Of Disease - Silent Fields [ep] (1996), Death Metal
post Jul 14 2021, 12:57:41
Post #1

Подвал
**************
Group: Металариец
Posts: 16,240
Releases: 9309
From: Far East (Khabarovsk)
On Forums: 12 years 7 months
Thanks: 105686 time(s)
Russian Federation


(IMG:http://metalarea.org/images/audiocovers/2021_Jul/acov_tid353404_thumb.jpg)

*Artist: Tomb Of Disease
*Album: Silent Fields [ep]
*Year: 1996
*Genre: Death Metal
*Country: Germany (IMG:http://metalarea.org/forum/style_images/flags/Germany.png)
*Format: mp3@CBR192kbps
*Size: 29MB

Tracklist:
1. Seasons Of Hate 05:09
2. No Respect 04:32
3. My Fear 05:08
4. Eternal Night 04:51
5. Stench Of Death 01:59
******************************
Total playing time: 21:39

Technical info
(IMG:http://metalarea.org/images/spectrogram/2021_Jul/0f0f24e2d43ece6bfb67733d276c20e6.png)
Input File: 01-Seasons of Hate.mp3
Channels : 2
Sample Rate : 44100
Precision : 16-bit
Duration : 00:05:09.28 = 13639160 samples = 23195.9 CDDA sectors
File Size : 7.42M
Bit Rate : 192k
Sample Encoding: MPEG audio (layer I, II or III)
Comments :
Title=Seasons of Hate
Artist=Tomb of Disease (Ger)
Album=Silent Fields (EP)
Tracknumber=01
Year=1996
Genre=Death Metal



Register


Go to the top of the page
  Insert nick Quick quote
+Quote Post

Reply to this topicStart new topic
1 User(s) are reading this topic (1 Guests and 0 Anonymous Users)
0 Members:

 



- Lo-Fi Version Support form
Copyrights and abuse reports form
Time is now: 16th September 2021 - 23:48:20