Welcome Guest ( Log In | Register )

 
Reply to this topicStart new topic
> Xantossa - Cosmic Cemetery [ep] (2002), Death Metal (D5)
post Jul 14 2021, 13:26:53
Post #1

Подвал
**************
Group: Металариец
Posts: 16,240
Releases: 9309
From: Far East (Khabarovsk)
On Forums: 12 years 7 months
Thanks: 105686 time(s)
Russian Federation


(IMG:http://metalarea.org/images/audiocovers/2021_Jul/acov_tid353408_thumb.jpg)

*Artist: Xantossa
*Album: Cosmic Cemetery [ep]
*Year: 2002
*Genre: Death Metal
*Country: Netherlands (IMG:http://metalarea.org/forum/style_images/flags/Netherlands.png)
*Format: mp3@CBR192kbps
*Size: 14MB

Tracklist:
1. The Hunters Trophy 03:52
2. Gutted With Bare Teeths 03:31
3. Cosmic Cemetery 02:59
******************************
Total playing time: 10:22

Technical info
(IMG:http://metalarea.org/images/spectrogram/2021_Jul/e1b2a6bf427b26caddef0fd47640fc19.png)
Input File: 01-The Hunters Trophy.mp3
Channels : 2
Sample Rate : 44100
Precision : 16-bit
Duration : 00:03:52.89 = 10270581 samples = 17467 CDDA sectors
File Size : 5.59M
Bit Rate : 192k
Sample Encoding: MPEG audio (layer I, II or III)
Comments :
Title=The Hunters Trophy
Artist=Xantossa (Hol)
Album=Cosmic Cemetery (EP)
Tracknumber=01
Year=2002
Genre=Death Metal



Register


Go to the top of the page
  Insert nick Quick quote
+Quote Post

Reply to this topicStart new topic
1 User(s) are reading this topic (1 Guests and 0 Anonymous Users)
0 Members:

 



- Lo-Fi Version Support form
Copyrights and abuse reports form
Time is now: 16th September 2021 - 22:29:48