Welcome Guest ( Log In | Register )

 
Reply to this topicStart new topic
> Ghostroom - Depths (2020), Gothic/Death Metal
post Jul 14 2021, 14:16:35
Post #1

Подвал
**************
Group: Металариец
Posts: 16,240
Releases: 9309
From: Far East (Khabarovsk)
On Forums: 12 years 7 months
Thanks: 105686 time(s)
Russian Federation


(IMG:http://metalarea.org/images/audiocovers/2021_Jul/acov_tid353411_thumb.jpg)

*Artist: Ghostroom
*Album: Depths
*Year: 2020
*Genre: Gothic/Death Metal
*Country: United States (IMG:http://metalarea.org/forum/style_images/flags/United%20States.png)
*Format: mp3@CBR320kbps
*Size: 82MB

Tracklist:
1. Depths 02:43
2. The Dreamers Below The Sea 06:10
3. The Underwater Garden (Septicflesh cover) 07:07
4. Rain Of Solitude 06:11
5. And The Raven Gazed With Hunger 07:19
6. Moonless 06:13
7. Tragedy At The Lighthouse 04:37
8. From The Flesh To The Bones 06:00
******************************
Total playing time: 46:20




Extended info
One man band originally from Cuba, now from Kentucky, USA (thanx uaforever_ua for this band).


Technical info
(IMG:http://metalarea.org/images/spectrogram/2021_Jul/fb77849d928bfd15de5b6c27c4b4856b.png)
Input File: 02-The Dreamers Below the Sea.mp3
Channels : 2
Sample Rate : 44100
Precision : 16-bit
Duration : 00:06:10.81 = 16352501 samples = 27810.4 CDDA sectors
File Size : 14.9M
Bit Rate : 321k
Sample Encoding: MPEG audio (layer I, II or III)
Comments :
Title=The Dreamers Below the Sea
Artist=Ghostroom
Album=Depths
Tracknumber=02
Year=2020
Genre=Metal



Register


Go to the top of the page
  Insert nick Quick quote
+Quote Post

Reply to this topicStart new topic
2 User(s) are reading this topic (2 Guests and 0 Anonymous Users)
0 Members:

 



- Lo-Fi Version Support form
Copyrights and abuse reports form
Time is now: 16th September 2021 - 23:45:43