Welcome Guest ( Log In | Register )

> Culak - Quiescent (2021), Post-Black/Doom Metal (D7)
post Jul 14 2021, 17:08:24
Post #1

Правь статус, ####!111
**************
Group: Металариец
Posts: 5,714
Releases: 5232
From: Одесса
On Forums: 14 years 5 months
Thanks: 61287 time(s)
Ukraine


(IMG:http://metalarea.org/images/audiocovers/2021_Jul/acov_tid353415_thumb.jpg)

*Artist: Culak
*Album: Quiescent
*Year: 2021
*Genre: Post-Black/Doom Metal
*Country: United States (IMG:http://metalarea.org/forum/style_images/flags/United%20States.png)
*Format: mp3@CBR320kbps
*Size: 115MB

Tracklist:
1. Preservation of Fire 03:12
2. Arisen 06:06
3. Wraith Ballet 03:23
4. Adorned in Roses 05:04
5. Charon's Obol 03:07
6. Harbinger 04:15
7. The Dawn Chorus 02:21
8. Cry from the Heavens 03:06
9. Youthful 03:42
10. Lightbringer 03:56
11. Dream Architect 03:28
12. Ars Sacra 02:56
13. O Beauty, Thou Art Still 04:25
******************************
Total playing time: 49:01



Technical info
(IMG:http://metalarea.org/images/spectrogram/2021_Jul/bd4c5c3b7b5e2dd134b27eb71173a08b.png)
Input File: 01. Preservation of Fire.mp3
Channels : 2
Sample Rate : 44100
Precision : 16-bit
Duration : 00:03:12.93 = 8508125 samples = 14469.6 CDDA sectors
File Size : 7.77M
Bit Rate : 322k
Sample Encoding: MPEG audio (layer I, II or III)
Comments :
Title=Preservation of Fire
Artist=Culak
Album=Quiescent
Tracknumber=1
Year=2021
Genre=Post-Black/Doom Metal



Register


Go to the top of the page
  Insert nick Quick quote
+Quote Post
 
Start new topic
Replies (1 - 3)
post Jul 20 2021, 21:06:00
Post #2

Ёлд ХеллоВяйне
Group Icon
Group: V.I.P
Posts: 33,803
Releases: 144
From: Питер
On Forums: 16 years 1 month
Thanks: 21245 time(s)
Russian Federation


Неформат на 146% — ни дума, ни блэка, одни клавишные зарисовки на заданные темы.
Go to the top of the page
  Insert nick Quick quote
+Quote Post
post Aug 27 2021, 16:18:24
Post #3

Шесть Литров
******
Group: Металариец
Posts: 696
Releases: 1
From: Россия, Санкт-Петербург
On Forums: 14 years 6 months
Thanks: 95 time(s)
Russian Federation


Развод, блин
Go to the top of the page
  Insert nick Quick quote
+Quote Post
post Sep 13 2021, 05:18:14
Post #4

i listen to black metal
**************
Group: Металариец
Posts: 3,458
Releases: 144
From: Москва
On Forums: 15 years 11 months
Thanks: 2464 time(s)
Russian Federation


ЦИТАТА(Old Vyaine @ Jul 20 2021, 23:06:00) *
Неформат на 146% — ни дума, ни блэка, одни клавишные зарисовки на заданные темы.

тогда баньте человека на неделю за такое админы- будьте справедливы.
Go to the top of the page
  Insert nick Quick quote
+Quote Post

Reply to this topicStart new topic
1 User(s) are reading this topic (1 Guests and 0 Anonymous Users)
0 Members:

 



- Lo-Fi Version Support form
Copyrights and abuse reports form
Time is now: 29th November 2022 - 12:32:00