Welcome Guest ( Log In | Register )

> И неформату есть предел.

Рэп/хип-хоп/шансон/поп удаляются. Для них есть свои порталы.

> Ison - Aurora (2021), Post-Rock/Ethereal Wave/Shoegaze
post Jul 15 2021, 10:20:14
Post #1

практики шума одухотворяющего
**************
Group: Металариец
Posts: 2,998
Releases: 80
On Forums: 3 years 6 months
Thanks: 3776 time(s)
Russian Federation


(IMG:https://metalarea.org/images/audiocovers/2021_Jul/acov_tid353432_thumb.jpg)

*Artist: Ison
*Album: Aurora
*Year: 2021
*Genre: Post-Rock/Ethereal Wave/Shoegaze
*Country: Sweden (IMG:https://metalarea.org/forum/style_images/flags/Sweden.png)
*Format: mp3@CBR320kbps
*Size: 160MB

Tracklist:
1. Jupiter 09:24
2. Waves 09:10
3. Aurora 08:25
4. Meridian 11:58
5. Celestial 08:36
6. Retrograde 07:58
7. Penumbra 06:54
8. Aquarian 07:45
******************************
Total playing time: 1:10:10



Extended info
ISON is the solo project from multi instrumentalist Daniel Änghede (Venus Principle, ex Crippled Black Phoenix)
The 4th album will be released in 2021 and features guest vocals from Sylvaine, Cammie Gilbert, Gogo Melone & Carline Van Roos amoung others.
The first 3 albums features Heike Langhans of Draconian on vocals & lyrics.


Technical info
(IMG:https://metalarea.org/images/spectrogram/2021_Jul/dac395128fbd1bbaf60a62327b558ed7.png)
Input File: 02. Waves.mp3
Channels : 2
Sample Rate : 44100
Precision : 16-bit
Duration : 00:09:10.22 = 24264878 samples = 41266.8 CDDA sectors
File Size : 22.0M
Bit Rate : 320k
Sample Encoding: MPEG audio (layer I, II or III)
Comments :
Title=Waves
Artist=ISON
Album=Aurora
Tracknumber=2
Year=2021
Genre=Post-Rock



Register


Go to the top of the page
  Insert nick Quick quote
+Quote Post
 
Start new topic
Replies (1 - 3)
post Jul 17 2021, 01:37:23
Post #2

Leegte
***********
Group: Металариец
Posts: 1,685
Releases: 15
From: Kiovia
On Forums: 9 years 3 months
Thanks: 2468 time(s)
Ukraine


Смешанные впечатления от альбома. Вроде бы всё ещё как-то цепляет, но стало меньше космоса и больше всякого нью-эйджа с их недомедитациями. Меня не покидает впечатление, что я слушаю какую-то не первой свежести Энигму в гитарной обработке.
Растеряли они атмосферу, в общем (IMG:style_emoticons/default/smile2.gif)
Go to the top of the page
  Insert nick Quick quote
+Quote Post
post Jul 17 2021, 09:01:08
Post #3

my church is black
**********
Group: Металариец
Posts: 1,084
Releases: 4
On Forums: 4 years 1 month
Thanks: 746 time(s)
Bhutan


Всё ещё хорош, но после ухода Хайке уже не то, жаль.
Go to the top of the page
  Insert nick Quick quote
+Quote Post
post Jul 19 2021, 22:42:59
Post #4

Dark Ambient Shoujo
**********
Group: Металариец
Posts: 1,390
Releases: 2
On Forums: 12 years 6 months
Thanks: 822 time(s)
Russian Federation


Странно, иногда откровенный пост-рок или вообще эмбиент (не говорю уж про дрим-поп) постят в формат, а тут имхо достаточно дума.
Go to the top of the page
  Insert nick Quick quote
+Quote Post

Reply to this topicStart new topic
1 User(s) are reading this topic (1 Guests and 0 Anonymous Users)
0 Members:

 



- Lo-Fi Version Support form
Copyrights and abuse reports form
Time is now: 25th July 2021 - 22:58:53