Welcome Guest ( Log In | Register )

> Space Chaser - Give Us Life (2021), Thrash Metal (D7)
post Jul 15 2021, 11:24:59
Post #1

Шесть Литров
******
Group: Металариец
Posts: 546
Releases: 486
On Forums: 4 months 4 weeks
Thanks: 12134 time(s)
United States


(IMG:http://metalarea.org/images/audiocovers/2021_Jul/acov_tid353439_thumb.jpg)

*Artist: Space Chaser
*Album: Give Us Life
*Year: 2021
*Genre: Thrash Metal
*Country: Germany (IMG:http://metalarea.org/forum/style_images/flags/Germany.png)
*Format: mp3@CBR320kbps
*Size: 105MB

Tracklist:
01. Remnants Of Technology 03:50
02. Juggernaut 03:52
03. Cryoshock 04:31
04. A.O.A. 02:49
05. The Immortals 03:43
06. Signals 03:21
07. Burn Them All 04:01
08. Give Us Life 04:14
09. Antidote To Order 03:10
10. Dark Descent 06:02
******************************
Total playing time: 39:33



Technical info
(IMG:http://metalarea.org/images/spectrogram/2021_Jul/d0c81b87b81d8a314ca2256e72a89030.png)
Input File: 02 - Juggernaut .mp3
Channels : 2
Sample Rate : 44100
Precision : 16-bit
Duration : 00:03:52.87 = 10269479 samples = 17465.1 CDDA sectors
File Size : 9.58M
Bit Rate : 329k
Sample Encoding: MPEG audio (layer I, II or III)
Comments :
Title=Juggernaut
Artist=Space Chaser
Album=Give Us Life
Tracknumber=2
Year=2021



Register


Go to the top of the page
  Insert nick Quick quote
+Quote Post
 
Start new topic
Replies (1 - 4)
post Jul 16 2021, 15:54:11
Post #2

Шесть Литров
******
Group: Металариец
Posts: 656
Releases: 0
On Forums: 12 years 2 months
Thanks: 168 time(s)
Ukraine


Сильный релиз, спасибо Гансы!!!!
Go to the top of the page
  Insert nick Quick quote
+Quote Post
post Jul 16 2021, 18:30:26
Post #3

21st Century Schizoid Man
**************
Group: Металариец
Posts: 6,941
Releases: 84
From: Pdmsk
On Forums: 13 years 4 months
Thanks: 5849 time(s)
Russian Federation


Не знаю, как альбом, но уже вошли в историю этим клипом.



Go to the top of the page
  Insert nick Quick quote
+Quote Post
post Jul 17 2021, 08:08:15
Post #4

Тридцать лет на борту "Тяжёлого" крейсера
**************
Group: Металариец
Posts: 2,684
Releases: 0
From: Питер
On Forums: 14 years 3 months
Thanks: 846 time(s)
Russian Federation


ну, такой закос под Overkill
можно прогнать раз-другой
Go to the top of the page
  Insert nick Quick quote
+Quote Post
post Jul 18 2021, 05:27:32
Post #5

hearer & reader
**************
Group: Металариец
Posts: 9,876
Releases: 173
From: Moscow
On Forums: 14 years 2 weeks
Thanks: 11200 time(s)
Russian Federation


Register


Thanks:
Go to the top of the page
  Insert nick Quick quote
+Quote Post

Reply to this topicStart new topic
2 User(s) are reading this topic (2 Guests and 0 Anonymous Users)
0 Members:

 



- Lo-Fi Version Support form
Copyrights and abuse reports form
Time is now: 25th September 2021 - 01:00:34