Welcome Guest ( Log In | Register )

> Døth - The Last Breathe Of Winter [demo] (2021), Black Metal
post Jul 16 2021, 00:37:07
Post #1

KPN 666
**************
Group: Металариец
Posts: 2,743
Releases: 1329
From: Тегеран
On Forums: 12 years 3 months
Thanks: 19167 time(s)
Iran


(IMG:http://metalarea.org/images/audiocovers/2021_Jul/acov_tid353475_thumb.jpg)

*Artist: Døth
*Album: The Last Breathe Of Winter [demo]
*Year: 2021
*Genre: Black Metal
*Country: Russian Federation (IMG:http://metalarea.org/forum/style_images/flags/Russian%20Federation.png)
*Format: mp3@CBR320kbps
*Size: 47MB

Tracklist:
01. Vintervind av Forandring (Remastered)
02. Fimbulwinter
03. I Will Be! (Victorious)
04. The Last Breathe of Winter
05. Hostile
******************************
Total playing time: 21:01



Technical info
(IMG:http://metalarea.org/images/spectrogram/2021_Jul/dfc786257c2995593541cc262ba3e088.png)
Input File: 03. I Will Be! (Victorious).mp3
Channels : 2
Sample Rate : 44100
Precision : 16-bit
Duration : 00:00:00.17 = 7585 samples = 12.8997 CDDA sectors
File Size : 7.10M
Bit Rate : 330M
Sample Encoding: MPEG audio (layer I, II or III)
Comments :
Title=I will be! (Victorious)
Artist=DØTH
Album=The Last Breathe of Winter
Tracknumber=3
Year=2021-05-11
Genre=Rock
Discnumber=1



Register


Go to the top of the page
  Insert nick Quick quote
+Quote Post
 
Start new topic
Replies (1 - 1)
post Jul 18 2021, 15:58:13
Post #2

0%Tolerance
**********
Group: Металариец
Posts: 1,384
Releases: 0
On Forums: 9 years 1 month
Thanks: 253 time(s)
Unknown


Годная блэчина.
Go to the top of the page
  Insert nick Quick quote
+Quote Post

Reply to this topicStart new topic
1 User(s) are reading this topic (1 Guests and 0 Anonymous Users)
0 Members:

 



- Lo-Fi Version Support form
Copyrights and abuse reports form
Time is now: 20th October 2021 - 15:02:18