Welcome Guest ( Log In | Register )

 
Reply to this topicStart new topic
> Désespéré - A Zeal For Quietus (2021), Depressive Black/Doom Metal
post Jul 16 2021, 09:53:11
Post #1

Правь статус, ####!616
**************
Group: Металариец
Posts: 6,921
Releases: 5368
From: 55°35’N 38°08’E
On Forums: 13 years 2 months
Thanks: 98501 time(s)
Unknown


(IMG:https://metalarea.org/images/audiocovers/2021_Jul/acov_tid353477_thumb.jpg)

*Artist: Désespéré
*Album: A Zeal For Quietus
*Year: 2021
*Genre: Depressive Black/Doom Metal
*Country: Iran (IMG:https://metalarea.org/forum/style_images/flags/Iran.png)
*Format: mp3@CBR320kbps
*Size: 76MB

Tracklist:
1.A Zeal for Quietus I 07:46
2.A Zeal for Quietus II 08:01
3.A Zeal for Quietus III 07:48
4.A Zeal for Quietus IV 09:37
******************************
Total playing time: 33:12



Technical info
(IMG:https://metalarea.org/images/spectrogram/2021_Jul/07399145b3b91379adee3e652aa88c78.png)
Input File: 01 A Zeal for Quietus I.mp3
Channels : 2
Sample Rate : 44100
Precision : 16-bit
Duration : 00:07:46.73 = 20582881 samples = 35004.9 CDDA sectors
File Size : 18.7M
Bit Rate : 321k
Sample Encoding: MPEG audio (layer I, II or III)
Comments :
Title=A Zeal for Quietus I
Artist=Désespéré
Album=A Zeal for Quietus
Tracknumber=1
Year=2021
Genre=Black/Doom Metal



Register


Go to the top of the page
  Insert nick Quick quote
+Quote Post

Reply to this topicStart new topic
1 User(s) are reading this topic (1 Guests and 0 Anonymous Users)
0 Members:

 



- Lo-Fi Version Support form
Copyrights and abuse reports form
Time is now: 18th September 2021 - 14:24:23