Welcome Guest ( Log In | Register )

> High´n´heavy - V (2021), Stoner/Doom Metal
post Jul 17 2021, 16:15:03
Post #1

Правь статус, ####!111
**************
Group: Металариец
Posts: 49,218
Releases: 869
On Forums: 12 years 3 months
Thanks: 44690 time(s)
Russian Federation


(IMG:https://metalarea.org/images/audiocovers/2021_Jul/acov_tid353506_thumb.jpg)

*Artist: High´n´heavy
*Album: V
*Year: 2021
*Genre: Stoner/Doom Metal
*Country: United Kingdom (IMG:https://metalarea.org/forum/style_images/flags/United%20Kingdom.png)
*Format: mp3@CBR320kbps
*Size: 102MB

Tracklist:
1. Cleansed With Blood 06:05
2. Gather Flame 03:38
3. Power Of Arachnid 06:31
4. Onward To Oblivion 05:40
5. Screaming Moon 06:00
6. Rise 05:20
7. Death In The Unknown 02:43
8. We Will Burn 06:30
******************************
Total playing time: 42:27



Technical info
(IMG:https://metalarea.org/images/spectrogram/2021_Jul/8a0a3e6eb0e108e1c40eb398c48e6d41.png)
Input File: 02. Gather Flame.mp3
Channels : 2
Sample Rate : 44100
Precision : 16-bit
Duration : 00:03:38.35 = 9629059 samples = 16376 CDDA sectors
File Size : 9.41M
Bit Rate : 345k
Sample Encoding: MPEG audio (layer I, II or III)
Comments :
Title=Gather Flame
Artist=High n' Heavy
Album=V
Tracknumber=2/8
Year=2021
Genre=Alternative
Discnumber=1/1



Register


Go to the top of the page
  Insert nick Quick quote
+Quote Post
 
Start new topic
Replies (1 - 2)
post Jul 18 2021, 15:39:44
Post #2

Восемь Литров
********
Group: Металариец
Posts: 858
Releases: 0
On Forums: 13 years 11 months
Thanks: 385 time(s)
Poland


High n' Heavy


Go to the top of the page
  Insert nick Quick quote
+Quote Post
post Jul 19 2021, 12:32:32
Post #3

hearer & reader
**************
Group: Металариец
Posts: 9,876
Releases: 173
From: Moscow
On Forums: 14 years 2 weeks
Thanks: 11200 time(s)
Russian Federation


И вообще американцы!
Go to the top of the page
  Insert nick Quick quote
+Quote Post

Reply to this topicStart new topic
2 User(s) are reading this topic (2 Guests and 0 Anonymous Users)
0 Members:

 



- Lo-Fi Version Support form
Copyrights and abuse reports form
Time is now: 25th September 2021 - 01:58:13