Welcome Guest ( Log In | Register )

 
Reply to this topicStart new topic
> Corpus Vitreum - A Fragile Dawn [single] (2021), Atmospheric/Post-Black Metal
post Jul 18 2021, 11:21:03
Post #1

KPN 666
**************
Group: Металариец
Posts: 2,743
Releases: 1329
From: Тегеран
On Forums: 12 years 3 months
Thanks: 19189 time(s)
Iran


(IMG:http://metalarea.org/images/audiocovers/2021_Jul/acov_tid353536_thumb.jpg)

*Artist: Corpus Vitreum
*Album: A Fragile Dawn [single]
*Year: 2021
*Genre: Atmospheric/Post-Black Metal
*Country: Germany (IMG:http://metalarea.org/forum/style_images/flags/Germany.png)
*Format: mp3@CBR320kbps
*Size: 33MB

Tracklist:
01. A Fragile Dawn
02. The Roots of: A Fragile Dawn
******************************
Total playing time: 14:37



Technical info
(IMG:http://metalarea.org/images/spectrogram/2021_Jul/768efaa3df4778ea5b354f06a998173e.png)
Input File: 02. The Roots of- A Fragile Dawn.mp3
Channels : 2
Sample Rate : 44100
Precision : 16-bit
Duration : 00:00:00.40 = 17728 samples = 30.1497 CDDA sectors
File Size : 16.2M
Bit Rate : 323M
Sample Encoding: MPEG audio (layer I, II or III)
Comments :
Title=The Roots of: A Fragile Dawn
Artist=Corpus Vitreum
Album=A Fragile Dawn
Tracknumber=2
Year=2021-07-10
Genre=Metal
Discnumber=1



Register


Go to the top of the page
  Insert nick Quick quote
+Quote Post

Reply to this topicStart new topic
1 User(s) are reading this topic (1 Guests and 0 Anonymous Users)
0 Members:

 



- Lo-Fi Version Support form
Copyrights and abuse reports form
Time is now: 23rd October 2021 - 22:45:50