Welcome Guest ( Log In | Register )

 
Reply to this topicStart new topic
> Corpus Vitreum - Morbid Mind [single] (2021), Atmospheric/Post-Black Metal
post Jul 18 2021, 11:44:37
Post #1

KPN 666
**************
Group: Металариец
Posts: 2,743
Releases: 1329
From: Тегеран
On Forums: 12 years 3 months
Thanks: 19178 time(s)
Iran


(IMG:http://metalarea.org/images/audiocovers/2021_Jul/acov_tid353539_thumb.jpg)

*Artist: Corpus Vitreum
*Album: Morbid Mind [single]
*Year: 2021
*Genre: Atmospheric/Post-Black Metal
*Country: Germany (IMG:http://metalarea.org/forum/style_images/flags/Germany.png)
*Format: mp3@CBR320kbps
*Size: 33MB

Tracklist:
01. Morbid Mind
02. The Roots of: Morbid Mind
******************************
Total playing time: 14:10



Technical info
(IMG:http://metalarea.org/images/spectrogram/2021_Jul/2dd786a8da53256ff1c2c3e22211015e.png)
Input File: 02. The Roots of- Morbid Mind.mp3
Channels : 2
Sample Rate : 44100
Precision : 16-bit
Duration : 00:00:00.38 = 16934 samples = 28.7993 CDDA sectors
File Size : 15.6M
Bit Rate : 325M
Sample Encoding: MPEG audio (layer I, II or III)
Comments :
Title=The Roots of: Morbid Mind
Artist=Corpus Vitreum
Album=Morbid Mind
Tracknumber=2
Year=2021-06-10
Genre=Metal
Discnumber=1



Register


Go to the top of the page
  Insert nick Quick quote
+Quote Post

Reply to this topicStart new topic
1 User(s) are reading this topic (1 Guests and 0 Anonymous Users)
0 Members:

 



- Lo-Fi Version Support form
Copyrights and abuse reports form
Time is now: 20th October 2021 - 15:20:17