Welcome Guest ( Log In | Register )

 
Reply to this topicStart new topic
> Sinister Sam - Catfish Gumbo [demo] (1991), Crossover/Thrash Metal/Funk
post Jul 18 2021, 13:28:34
Post #1

Подвал
**************
Group: Металариец
Posts: 16,508
Releases: 9432
From: Far East (Khabarovsk)
On Forums: 12 years 10 months
Thanks: 107770 time(s)
Russian Federation


(IMG:http://metalarea.org/images/audiocovers/2021_Jul/acov_tid353542_thumb.JPG)

*Artist: Sinister Sam
*Album: Catfish Gumbo [demo]
*Year: 1991
*Genre: Crossover/Thrash Metal/Funk
*Country: United States (IMG:http://metalarea.org/forum/style_images/flags/United%20States.png)
*Format: mp3@CBR128kbps (IMG:http://metalarea.org/images/bit_low.gif)
*Size: 17MB

Tracklist:
1. Work 03:32
2. Fresno 04:26
3. Lecter 05:16
4. Doctor McCoy 04:16
5. Nice To Meet You 01:04
******************************
Total playing time: 18:34

(IMG:http://metalarea.org/images/youtube.png)

Extended info
Band from San Jose, California.
Someone says "it sounds like mix of Frank Zappa & Pantera".


Technical info
(IMG:http://metalarea.org/images/spectrogram/2021_Jul/320f6888033ef3f6d303585b66a322c5.png)
Input File: 01-Work.mp3
Channels : 2
Sample Rate : 44100
Precision : 16-bit
Duration : 00:03:32.19 = 9357755 samples = 15914.5 CDDA sectors
File Size : 3.40M
Bit Rate : 128k
Sample Encoding: MPEG audio (layer I, II or III)
Comments :
Title=Work
Artist=Sinister Sam (US, CA)
Album=Catfish Gumbo (Demo)
Tracknumber=01
Year=1991
Genre=Metal



Register


Go to the top of the page
  Insert nick Quick quote
+Quote Post

Reply to this topicStart new topic
1 User(s) are reading this topic (1 Guests and 0 Anonymous Users)
0 Members:

 



- Lo-Fi Version Support form
Copyrights and abuse reports form
Time is now: 5th December 2021 - 02:06:19