Welcome Guest ( Log In | Register )

 
Reply to this topicStart new topic
> Damnasty - Demo 1989 [demo] (1989), Thrash/Heavy Metal
post Jul 18 2021, 13:39:33
Post #1

Подвал
**************
Group: Металариец
Posts: 16,499
Releases: 9432
From: Far East (Khabarovsk)
On Forums: 12 years 10 months
Thanks: 107754 time(s)
Russian Federation


(IMG:http://metalarea.org/images/audiocovers/2021_Jul/acov_tid353544_thumb.jpg)

*Artist: Damnasty
*Album: Demo 1989 [demo]
*Year: 1989
*Genre: Thrash/Heavy Metal
*Country: United States (IMG:http://metalarea.org/forum/style_images/flags/United%20States.png)
*Format: mp3@CBR192kbps
*Size: 16MB

Tracklist:
1. Rapscallion 04:37
2. Don't Get Too Close 02:18
3. When Darkness Falls 04:49
******************************
Total playing time: 11:44



Extended info
Band from San Jose, California.


Technical info
(IMG:http://metalarea.org/images/spectrogram/2021_Jul/399d6d906557e006f13b4c88a47f6140.png)
Input File: 01-Rapscallion.mp3
Channels : 2
Sample Rate : 44100
Precision : 16-bit
Duration : 00:04:36.89 = 12210629 samples = 20766.4 CDDA sectors
File Size : 6.65M
Bit Rate : 192k
Sample Encoding: MPEG audio (layer I, II or III)
Comments :
Title=Rapscallion
Artist=Damnasty (US, CA)
Album=Demo 1989
Tracknumber=01
Year=1989-18-07
Genre=Thrash Metal



Register


Go to the top of the page
  Insert nick Quick quote
+Quote Post

Reply to this topicStart new topic
1 User(s) are reading this topic (1 Guests and 0 Anonymous Users)
0 Members:

 



- Lo-Fi Version Support form
Copyrights and abuse reports form
Time is now: 3rd December 2021 - 04:31:54