Welcome Guest ( Log In | Register )

 
Reply to this topicStart new topic
> Damnasty - Recorded Live Demo (Practice Studio) [demo] (1993), Thrash Metal
post Jul 18 2021, 14:08:08
Post #1

Подвал
**************
Group: Металариец
Posts: 16,428
Releases: 9389
From: Far East (Khabarovsk)
On Forums: 12 years 9 months
Thanks: 106891 time(s)
Russian Federation


(IMG:http://metalarea.org/images/audiocovers/2021_Jul/acov_tid353548_thumb.jpg)

*Artist: Damnasty
*Album: Recorded Live Demo (Practice Studio) [demo]
*Year: 1993
*Genre: Thrash Metal
*Country: United States (IMG:http://metalarea.org/forum/style_images/flags/United%20States.png)
*Format: mp3@CBR192kbps
*Size: 37MB

Tracklist:
1. S E X X 04:38
2. Breakfast In Hell 04:07
3. Prossesor 05:26
4. Your Other Face 04:44
5. Shotgun Wedding 04:56
6. Get Out Of My Face 03:47
******************************
Total playing time: 27:38



Extended info
Band from San Jose, California. Recorded in 1993. Formally released in 2013.


Technical info
(IMG:http://metalarea.org/images/spectrogram/2021_Jul/5963ad6e1704fbaec3a263bd8990135c.png)
Input File: 02-Breakfast In Hell.mp3
Channels : 2
Sample Rate : 44100
Precision : 16-bit
Duration : 00:04:07.71 = 10923791 samples = 18577.9 CDDA sectors
File Size : 5.95M
Bit Rate : 192k
Sample Encoding: MPEG audio (layer I, II or III)
Comments :
Title=Breakfast In Hell
Artist=Damnasty (US, CA)
Album=Recorded Live Demo (Practice Studio)
Tracknumber=02
Year=1993-18-07
Genre=Thrash Metal



Register


Go to the top of the page
  Insert nick Quick quote
+Quote Post

Reply to this topicStart new topic
1 User(s) are reading this topic (1 Guests and 0 Anonymous Users)
0 Members:

 



- Lo-Fi Version Support form
Copyrights and abuse reports form
Time is now: 28th October 2021 - 21:57:42