Welcome Guest ( Log In | Register )

 
Reply to this topicStart new topic
> Cosmic Void - All Is Lost In Time [ep] (2021), Post-Black Metal
post Jul 18 2021, 14:21:25
Post #1

KPN 666
**************
Group: Металариец
Posts: 2,735
Releases: 1321
From: Тегеран
On Forums: 12 years 2 months
Thanks: 19048 time(s)
Iran


(IMG:http://metalarea.org/images/audiocovers/2021_Jul/acov_tid353549_thumb.jpg)

*Artist: Cosmic Void
*Album: All Is Lost In Time [ep]
*Year: 2021
*Genre: Post-Black Metal
*Country: Germany (IMG:http://metalarea.org/forum/style_images/flags/Germany.png)
*Format: mp3@CBR320kbps
*Size: 69MB

Tracklist:
01. The Monolith
02. Requiem
03. All Is Lost in Time (pt. 1)
04. All Is Lost in Time (pt. 2)
******************************
Total playing time: 29:28



Technical info
(IMG:http://metalarea.org/images/spectrogram/2021_Jul/af555705523fb225a55956dd2be39b9c.png)
Input File: 01. The Monolith.mp3
Channels : 2
Sample Rate : 44100
Precision : 16-bit
Duration : 00:00:00.48 = 20992 samples = 35.7007 CDDA sectors
File Size : 19.5M
Bit Rate : 327M
Sample Encoding: MPEG audio (layer I, II or III)
Comments :
Title=The Monolith
Artist=Cosmic Void
Album=All is lost in time
Tracknumber=1
Year=2021-04-02
Genre=Metal
Discnumber=1



Register


Go to the top of the page
  Insert nick Quick quote
+Quote Post

Reply to this topicStart new topic
2 User(s) are reading this topic (2 Guests and 0 Anonymous Users)
0 Members:

 



- Lo-Fi Version Support form
Copyrights and abuse reports form
Time is now: 25th September 2021 - 13:35:47