Welcome Guest ( Log In | Register )

> Releases Upload / Добавление релизов

Добавить релиз тут / Click here to add release
Рекомендованные обменники / Recommended file shares

> Kizin - Existentialism, The Sense Of Human Essence (2021), Progressive Death Metal
post Jul 19 2021, 14:43:52
Post #1

Правь статус, ####!111
**************
Group: Металариец
Posts: 27,349
Releases: 19845
From: Г.Харьков
On Forums: 9 years 4 months
Thanks: 399177 time(s)
Unknown


(IMG:https://metalarea.org/images/audiocovers/2021_Jul/acov_tid353576_thumb.jpg)

*Artist: Kizin
*Album: Existentialism, The Sense Of Human Essence
*Year: 2021
*Genre: Progressive Death Metal
*Country: Chile (IMG:https://metalarea.org/forum/style_images/flags/Chile.png)
*Format: mp3@CBR320kbps
*Size: 147MB

Tracklist:
1. Immersed Through the Light-Dark Path 11:40
2. Advent 11:50
3. Thrown of Fate 10:10
4. In the Front of the Monolith 09:00
5. Transcendence and the Selfhood 10:50
6. Existentialism, The Sense of Human Essence 11:30
******************************
Total playing time: 1:05:00




Extended info
Luis Peña Otto All instruments, Vocals, Lyrics


Technical info
(IMG:https://metalarea.org/images/spectrogram/2021_Jul/fd7b9f4ba35e0574715d5793e50be719.png)
Input File: 06 - Existentialism, The Sense of Human Essence.mp3
Channels : 2
Sample Rate : 44100
Precision : 16-bit
Duration : 00:11:30.04 = 30430676 samples = 51752.9 CDDA sectors
File Size : 27.6M
Bit Rate : 320k
Sample Encoding: MPEG audio (layer I, II or III)
Comments :
Title=Existentialism, The Sense of Human Essence
Artist=Kizin
Album=Existentialism, the Sense of Human Essence
Tracknumber=6
Year=2021
Genre=Metal



Register


Go to the top of the page
  Insert nick Quick quote
+Quote Post
 
Start new topic
Replies (1 - 1)
post Jul 21 2021, 15:27:28
Post #2

Девять Литров
*********
Group: Металариец
Posts: 993
Releases: 0
From: Харьков
On Forums: 13 years 6 months
Thanks: 850 time(s)
Ukraine


Неплохо, как для Чили. Хороший сочный звук, прогрессивность присутствует. И даже щепотка мелодичности.
Go to the top of the page
  Insert nick Quick quote
+Quote Post

Reply to this topicStart new topic
1 User(s) are reading this topic (1 Guests and 0 Anonymous Users)
0 Members:

 



- Lo-Fi Version Support form
Copyrights and abuse reports form
Time is now: 17th September 2021 - 15:13:47