Welcome Guest ( Log In | Register )

 
Reply to this topicStart new topic
> Carved Soul - The Ultimate Nightmare [demo] (2021), Black Metal
post Jul 19 2021, 21:48:38
Post #1

Group: Подсевший
Posts: 26
Releases: 13
From: Bavaria
On Forums: 2 years 4 months
Thanks: 128 time(s)
Germany


(IMG:https://metalarea.org/images/audiocovers/2021_Jul/acov_tid353587_thumb.jpg)

*Artist: Carved Soul
*Album: The Ultimate Nightmare [demo]
*Year: 2021
*Genre: Black Metal
*Country: Portugal (IMG:https://metalarea.org/forum/style_images/flags/Portugal.png)
*Format: mp3@VBR300kbps
*Size: 11MB

Tracklist:
1. Missing Footage 01:05
2. A False Sense Of Solace 02:57
3. Engraved Seal (Outro) 00:47
******************************
Total playing time: 4:49

Extended info


Technical info
(IMG:https://metalarea.org/images/spectrogram/2021_Jul/29cff3d1a40f5baeb2283fbf1cc62ceb.png)
Input File: CARVED SOUL - The Ultimate Nightmare (EP) - 02 A False Sense Of Solace.mp3
Channels : 2
Sample Rate : 44100
Precision : 16-bit
Duration : 00:02:57.16 = 7812844 samples = 13287.1 CDDA sectors
File Size : 6.78M
Bit Rate : 306k
Sample Encoding: MPEG audio (layer I, II or III)
Comments :
Title=A False Sense Of Solace
Artist=CARVED SOUL
Album=The Ultimate Nightmare (EP)
Tracknumber=2
Year=2021



Register


Go to the top of the page
  Insert nick Quick quote
+Quote Post

Reply to this topicStart new topic
1 User(s) are reading this topic (1 Guests and 0 Anonymous Users)
0 Members:

 



- Lo-Fi Version Support form
Copyrights and abuse reports form
Time is now: 5th December 2021 - 02:16:50