Welcome Guest ( Log In | Register )

> Dying Serenade - Condemn (2016), Atmospheric Doom Metal
post Jul 20 2021, 09:47:23
Post #1

but I'm white and furry
**********
Group: Металариец
Posts: 1,404
Releases: 513
From: Москва
On Forums: 15 years 7 months
Thanks: 6999 time(s)
Russian Federation


(IMG:http://metalarea.org/images/audiocovers/2021_Jul/acov_tid353595_thumb.jpg)

*Artist: Dying Serenade
*Album: Condemn
*Year: 2016
*Genre: Atmospheric Doom Metal
*Country: Iran (IMG:http://metalarea.org/forum/style_images/flags/Iran.png)
*Format: mp3@CBR320kbps
*Size: 86MB

Tracklist:
1. Condemn 5:39
2. In my time of dying 6:52
3. Broken he lay to the wall 6:38
4. Scream of silence 8:36
5. Dread 4:04
6. Miscarriage of justice 6:35
******************************
Total playing time: 38:24



Extended info
lame 3.93


Technical info
(IMG:http://metalarea.org/images/spectrogram/2021_Jul/ebcc1e3bb39843bae63012589e7c6a68.png)
Input File: 01 - Condemn.mp3
Channels : 2
Sample Rate : 44100
Precision : 16-bit
Duration : 00:05:39.48 = 14971200 samples = 25461.2 CDDA sectors
File Size : 13.6M
Bit Rate : 320k
Sample Encoding: MPEG audio (layer I, II or III)
Comments :
Title=Condemn
Artist=Dying Serenade
Album=Condemn
Tracknumber=1
Year=2016
Genre=Metal



Register


Go to the top of the page
  Insert nick Quick quote
+Quote Post
 
Start new topic
Replies (1 - 1)
post Jul 21 2021, 02:22:57
Post #2

Четыре Литра
****
Group: Металариец
Posts: 316
Releases: 0
On Forums: 3 years 7 months
Thanks: 125 time(s)
Belarus


Сыро и невыразительно.
Go to the top of the page
  Insert nick Quick quote
+Quote Post

Reply to this topicStart new topic
1 User(s) are reading this topic (1 Guests and 0 Anonymous Users)
0 Members:

 



- Lo-Fi Version Support form
Copyrights and abuse reports form
Time is now: 20th September 2021 - 03:28:51