Welcome Guest ( Log In | Register )

> Releases Upload / Добавление релизов

Добавить релиз тут / Click here to add release
Рекомендованные обменники / Recommended file shares

> Into Apathy - Oceans Of Sorrow [ep] (2021), Gothic Doom/Death Metal
post Jul 20 2021, 10:14:29
Post #1

KPN 666
**************
Group: Металариец
Posts: 2,565
Releases: 1167
From: Тегеран
On Forums: 12 years 3 weeks
Thanks: 17532 time(s)
Iran


(IMG:http://metalarea.org/images/audiocovers/2021_Jul/acov_tid353596_thumb.jpg)

*Artist: Into Apathy
*Album: Oceans Of Sorrow [ep]
*Year: 2021
*Genre: Gothic Doom/Death Metal
*Country: United States (IMG:http://metalarea.org/forum/style_images/flags/United%20States.png)
*Format: mp3@CBR320kbps
*Size: 52MB

Tracklist:
01. Oceans of Sorrow
02. Hollow Existence
03. Electric Funeral
04. Oceans of Sorrow (Instrumental)
05. Hollow Existence (Instrumental)
******************************
Total playing time: 22:29



Technical info
(IMG:http://metalarea.org/images/spectrogram/2021_Jul/f4810ea1d84c89778c7de8ece6dfd0a6.png)
Input File: 02. Hollow Existence.mp3
Channels : 2
Sample Rate : 44100
Precision : 16-bit
Duration : 00:00:00.24 = 10628 samples = 18.0748 CDDA sectors
File Size : 9.79M
Bit Rate : 325M
Sample Encoding: MPEG audio (layer I, II or III)
Comments :
Title=Hollow Existence
Artist=Into Apathy
Album=Oceans of Sorrow
Tracknumber=2
Year=2021-07-09
Genre=Metal
Discnumber=1



Register


Go to the top of the page
  Insert nick Quick quote
+Quote Post
 
Start new topic
Replies (1 - 1)
post Jul 21 2021, 02:18:16
Post #2

Три Литра
***
Group: Завсегдатай
Posts: 296
Releases: 0
On Forums: 3 years 5 months
Thanks: 119 time(s)
Belarus


Все композиции по четыре минуты? Вообще не смешно. Любая композиция короче семи минут - интро. Что касаемо музыки, то она не для поклонников Doom Metal.
Go to the top of the page
  Insert nick Quick quote
+Quote Post

Reply to this topicStart new topic
1 User(s) are reading this topic (1 Guests and 0 Anonymous Users)
0 Members:

 



- Lo-Fi Version Support form
Copyrights and abuse reports form
Time is now: 27th July 2021 - 18:54:39