Welcome Guest ( Log In | Register )

> Releases Upload / Добавление релизов

Добавить релиз тут / Click here to add release
Рекомендованные обменники / Recommended file shares

> Spiral Staircase - Cellar Dream [ep] (2021), Raw Black Metal (D)
post Jul 20 2021, 10:22:54
Post #1

Правь статус, ####!111
**************
Group: Металариец
Posts: 2,299
Releases: 1852
From: Praha
On Forums: 7 years 3 months
Thanks: 49104 time(s)
Czech Republic


(IMG:http://metalarea.org/images/audiocovers/2021_Jul/acov_tid353597_thumb.jpg)

*Artist: Spiral Staircase
*Album: Cellar Dream [ep]
*Year: 2021
*Genre: Raw Black Metal
*Country: United States (IMG:http://metalarea.org/forum/style_images/flags/United%20States.png)
*Format: mp3@VBR245kbps
*Size: 23MB

Tracklist:
A1. Heart Of Malice
A2. Ecstacy Of Departure
B3. Cellar Dream
******************************
Total playing time: 11:37

Extended info
Final Agony Records ‎– Final Agony 145, Lampshade Tapes ‎– LST37.
Vinyl-rip by Zero


Technical info
(IMG:http://metalarea.org/images/spectrogram/2021_Jul/ae51f6e71e3803715aaad2e38e7ccd72.png)
Input File: 02. Ecstacy Of Departure.mp3
Channels : 2
Sample Rate : 44100
Precision : 16-bit
Duration : 00:02:48.36 = 7424632 samples = 12626.9 CDDA sectors
File Size : 5.74M
Bit Rate : 273k
Sample Encoding: MPEG audio (layer I, II or III)
Comments :
Title=Ecstacy Of Departure
Artist=Spiral Staircase
Album=Cellar Dream
Tracknumber=02/03
Year=2021
Genre=Black Metal
Discnumber=1/1



Register


Go to the top of the page
  Insert nick Quick quote
+Quote Post
 
Start new topic
Replies (1 - 1)
post Jul 21 2021, 07:45:26
Post #2

While Waiting the Worms
**********
Group: Металариец
Posts: 1,336
Releases: 0
On Forums: 7 years 7 months
Thanks: 2022 time(s)
Unknown




Go to the top of the page
  Insert nick Quick quote
+Quote Post

Reply to this topicStart new topic
2 User(s) are reading this topic (2 Guests and 0 Anonymous Users)
0 Members:

 



- Lo-Fi Version Support form
Copyrights and abuse reports form
Time is now: 27th July 2021 - 18:19:21