Welcome Guest ( Log In | Register )

> Celestial Key - Immortal Crown (2021), Raw Black Metal
post Jul 20 2021, 10:26:12
Post #1

Правь статус, ####!111
**************
Group: Металариец
Posts: 2,336
Releases: 1885
From: Praha
On Forums: 7 years 5 months
Thanks: 50157 time(s)
Czech Republic


(IMG:http://metalarea.org/images/audiocovers/2021_Jul/acov_tid353598_thumb.jpg)

*Artist: Celestial Key
*Album: Immortal Crown
*Year: 2021
*Genre: Raw Black Metal
*Country: United States (IMG:http://metalarea.org/forum/style_images/flags/United%20States.png)
*Format: mp3@CBR320kbps
*Size: 55MB

Tracklist:
AI. The Garden Crypt
AII. Restless Spirit Of War
AIII. Lightning Fields
BIV. Steel Doctrine Of The Will
BV. Awakening The Ancient Self
******************************
Total playing time: 22:35

Extended info
Final Agony Records ‎– Final Agony 142


Technical info
(IMG:http://metalarea.org/images/spectrogram/2021_Jul/3e62df7bbd83b8ee0bf263c4a303eb2a.png)
Input File: 01. The Garden Crypt.mp3
Channels : 2
Sample Rate : 48000
Precision : 16-bit
Duration : 00:04:18.12 = 12389904 samples ~ 19359.2 CDDA sectors
File Size : 10.8M
Bit Rate : 334k
Sample Encoding: MPEG audio (layer I, II or III)
Comments :
Title=The Garden Crypt
Artist=Celestial Key
Album=Immortal Crown
Tracknumber=01/05
Year=2021
Genre=Black Metal



Register


Go to the top of the page
  Insert nick Quick quote
+Quote Post
 
Start new topic
Replies (1 - 1)
post Jul 21 2021, 07:45:43
Post #2

While Waiting the Worms
**********
Group: Металариец
Posts: 1,373
Releases: 0
On Forums: 7 years 8 months
Thanks: 2092 time(s)
Unknown




Go to the top of the page
  Insert nick Quick quote
+Quote Post

Reply to this topicStart new topic
1 User(s) are reading this topic (1 Guests and 0 Anonymous Users)
0 Members:

 



- Lo-Fi Version Support form
Copyrights and abuse reports form
Time is now: 19th September 2021 - 19:11:06